&title=In the Garden
&artist=Qutabire
&first=0.66
&des=Project_AC
&lv_5=14+
&inote_5=(210)
{8}
,,,,,,,,35,,,,,,,4/6,,,6,,,,,,34,34,,,,,,56,,,6,,,,,,24,,,,,,,57,,,7,,,,,,
12,12,,,,,,17,,,7-5[8:1],,,,4,,35,3/5,,2,,1,,6qq1[4:2]/1,,,,,,,2,,
3/8,38,,3pp8[4:2],,,,6,,,6h[2:1],,,,,,17,17,,2,,3,,45,45,,63,,2-4[8:1],,6,
6qq8[8:7]*qq2[8:7],,,,,,,,,,,,,,,,,
{16}1,8,1,8,1,8,1,8,
{8}2v5[8:1]/7,,2,6-8[8:1],,46,,1^3[8:1]/7,,1qq5[4:2],,1,2,3,4,3,
2-8[8:1],,2,7v4[8:1],,1^3[8:1]/7,,1,,5qq1[4:2]/4,,6,7,8,7,6,
5-7[8:1],,15,2-4[8:1],,2/1-7[8:1],,1-3[8:1],,1qq5[4:2],,2,3,4,3,2,
1-3[8:1],,1,7-5[8:1],,4-8[8:1]/7,,4/6-1[8:1],,62,,
{16}28,37,46,,5,,46,,46,,35,,3-8[8:1]/5,,,,3/7-4[8:1],,,,1-5[8:1]/7,,,,
1/8-3[8:1],,,,4-1[8:1],,,,4,,6,,2,,8,1,8,1,8-6[8:1],,,,
{8}8,2,1-3[8:1],7,1,8-6[8:1],,28,,1,5,46,37,18,27,
{16}3,4,2,,6,5,7,,2,1,3,,7,8,6,,2,3,45,,6,5,7,,7,,1,,1,,28,,28,,37,,37,,
6,4,6,3,5,3,6,4,6h[2:1],,4,,,,4,,4-8[8:1],,46,,7b,,,,1qq5[4:2],2,3,,,,,,4,,3,,,,
2h[8:3],,,,4,5,6-2[8:1],,2-5[8:1],,,,,,1^3[8:1],,1,,1^7[8:1],,,,1,,
2-6[8:1],,,,2/7-5[8:1],,,,7qq3[4:2],,,,4,,3,,2,,1h[4:1],,,,4,,51,,,,,,,,
3,5,4,,4,,6,,6h[2:1],,,,5,,4,,3,,6,,5,,4,,3,,35,,5,,46,,4-6[8:1],,,,4,,
7,,7,,6,,6,,5,,5-1[8:1],,,,45,,3,,3,,8^5[4:1],,3,2,1,,,,1,,4,,1,,6,,
1,2,3,,7,,7/4-1[8:1],,,,4,,5,,6,,6-2[8:1],,,,3,,4>8[4:1],,,,4,,,,6h[4:1],,,,
1,,2,,3,,6,,6,,4,,4,,54,,5,,,,
6,4,5,,5,,3,,3h[2:1],,,,4,,5,,6,,3,,4,,5,,6,,64,,4,,53,,53,,6,4,7,3,6,,
64,,64,,35,,35,,24,,
{24}2,1,8,7,6,5,4/7qq3[4:4],,,,,,,,,,,,,,,,,,
{8},,,,1h[1:1],,,,,,,,2<5[1:1],,,,,,,,3h[1:1],,,,,,,,4<2[1:1],,,,,,,,5,,,,
5>7[1:1],,,,,,,,6h[1:1],,,,5>1[1:1],,,,,,,,4h[1:1],,,,8,,,,5h[1:1],,,,1,,,,
6h[1:1],,,,2,,,,5<1[2:1],,,,1>5[2:1],,,,5qq1[1:1]*pp8[1:1],,,,,,,,,,,,
2h[2:1],,,,4>7[1:1],,,,,,,,3q6[8:6],,,,,,,,
7h[8:3],,,6,,,5-1[4:1]/7,,
2,,,,,,,,
2h[8:3],,,3,,,4-8[4:1]/2,,
7,,,,,,,
{16}6,5,6h[8:3],,,,,,4,,,,,,3/5-1[4:1],
,,,2,,,,,,,,18,,,,,,,,
3h[8:3],,,,,,5,,,,,,4-8[4:1]/6,,,,7,,,,6,,,,1,,,,2,,,,
3h[8:3]/8,,,,,,4,,,,,,4-8[4:1]/5,,,,7,,,,,,,,16,,,,,,,,
6h[8:3]/4,,,,,,5,,,,,,5-1[4:1]/4,,,,2,,,,,,,,83,,,,,,
7,6,5/3h[8:3],,,,,,4,,,,,,4-8[4:1]/5,,,,7,,,,,,,,1h[2:1]/6,,,,,,,,
8-3[8:3],,,,,,3^6[8:3],,,,,,1-5[4:1],,,,1b,,,,,,,,7b,,,,,,,,
(105)
{32}3b^1[8:1]/5b,,,,,,4,5,3,,,,6,,,,6/8<4[8:1],,,,7,,,,18,,,,2,,,,
3qq7[4:2]/4,,,,,,4,5,3,,,,6,,,,7>4[8:3],,,,6,,,,5,,,,
4qq1[4:2],,,,5,,,,6,,,,
{16}7,,8<5[8:1],,7,,8,,2-4[8:1],,4,,2-8[8:1]/5,,6-4[8:1],,
2/7>4[4:2],,6,,,,5,,6,,7,,8-4[8:1],,,,8/2-6[8:1],,,,2/5^8[8:1],,,,1/5,,,,
12,,3,4,,56,,7/8^5[8:1],,,,
{32}1,2,3,,4,,4,,5,,
{16}46,,7,
{32}7,5,6,,4,,,,3/5pp1[4:1],,,,,,2,,,,4s8[2:1]*z8[2:1],,,,,,,,
{8},,,,,
{16}
1,1,
{32}1,2,3,4,5,6,7,8,
(210)
{8}1/5b,,34,2pp6[8:3],,5,6^1[4:1]*^3[4:1],,,,,
28,1,1,7-5[8:1]*-2[8:1],,7,,4,4<1[4:1],,3/4^2[8:1],,4,,5,5h[4:1],,
1,26,37,48,4/8-4[8:1],,2,1-5[8:1],,1/6qq2[4:2],,6,,,3h[4:1],,,1,3,4,
2-5[8:1],,26,7-4[8:1],,7/8^3[16:3],,8qq5[4:2],,4,3,2,1,1,6,7,8pp5[4:2]/2,,,,
5<8[4:1]*^2[4:1],,,,,1,1/5,6,
{16}37,,3,4,2-4[8:1],,,,5,,6,,7,,7-5[8:1]*-4[8:1],,,,7>4[4:1],,,,7,,,,8,,8,,
7,,6,,5,,4,,3,,3-1[8:1]/5,,,,6,,7-5[8:1],,,,1-3[8:1]/7,,,,
1/7h[4:1],,,,5,,4,,3,,6,,5,,
4,,3,,24,,1,,8,,57,,6,5,6,5,74,,7,,4,,4,,5,,5,,3,4,3,4,2,5,2,5,
1b^6[4:1],,,,6^3[4:1],,,,3^8[4:1],,,,8-4[8:1]*^5[8:1],,,,,,,,3,,2,,4,,5,,
6/1-5[8:1],,,,18,,,,7,,7-3[8:1]/4-1[8:1],,,,4/7,,,,25,36,4/7qq4[4:2],,8,,1,,,,
1,,2,,3,,5,,6-1[8:1],,,,56,,4^1[8:1],,,,4/8p4[8:1]*^5[8:1],,,,8,,,,3,2,
1pp3[8:1]/5pp7[8:1],,,,,,,,26,,,,1^4[4:1]/8,,,,4q1[4:1]/1<5[4:1],,,,,,,,,,2,,
4,,3,,4,,5,,46,,46,,
{24}3,5,3,5,,,
{16}2b<6[4:1],,,,6>2[16:3],,,,1-5[8:1],,,,8,,,,7qq3[4:2],,,,4,,3,,2,,1,,
1-4[8:1]*-6[8:1],,,,1,,,,8,,8-4[8:1],,,,8^3[8:1]*^5[8:1],,,,8,,,,,,
15,26,37,,4,,4,,8,,6,,7-4[8:1],,,,37,,2-5[8:1],,,,2/1<4[8:3],,,,1,,,,,,,,
3,,2,,4,,5,,1,,8,,27,,27,,3,4,2,6,5,7,5,,4,,4,,35,,53,,26,,62,,
{24}1,2,3,4,5,6,7p4[4:4],8,1,2b/7b,,,,,,
(105)
{32},,,2,,,,,,,,,,,,,3,,,,
{16}2qq6[4:2]/4,,,,2/5,,4,,6>1[8:3],,,,7,,8,,7,,,,
{32}6,,1,2,3,,5,4,6,,,,8-4[8:1],,,,,,,,
{16}8,,
3-1[8:1],,1,,3-5[8:1]/8,,7-1[8:1],,
3/6>1[4:2],,7,,,,8,,7,,6,,5-1[8:1],,,,5/3-7[8:1],,,,3/8^5[8:1],,,,4/8,,,,
43,,2,1,,87,,6/5^8[8:1],,,,
{32}4,3,2,,1,,1,,8,,
{16}17,,6,
{32}6,8,7,,1,,,,2/8qq4[4:1],,,,,,3,,,,1w5[4:2],,,,,,,,
{8},,,,,
{16}
4,4,
{48}4,3,2,1,8,7,6,5,4,3,2,1,
(210)
{16}8b/6b-2[8:1],,6,,1-4[8:1],,,,1,,5,,5-7[8:1],,,,5,,4-8[8:1],,5,,4,,7,,1,,
8-4[8:1],,,,
3b-7[8:1],,3,,8-5[8:1],,,,8,,4,,4-2[8:1],,,,4,,5-1[8:1],,4,,5,,2,,8,,
1-5[8:1],,,,
7b-3[8:1],,7,,4-1[8:1],,,,4,,8,,8-6[8:1],,,,8,,1-5[8:1],,8,,1,,6,,4,,
5-1[8:1],,,,
2b-6[8:1],,2,,5-8[8:1],,,,5,,1,,1-3[8:1],,,,1,,8-4[8:1],,1,,8,,3,,5,,
4-8[8:1],,,,6b,,7-4[8:1],,,,7/1^3[8:1],,,,1/8-5[8:1],,,,1v4[8:1]/8,
,,,6,,7,,8h[4:1],,,,5,4,3,2,1-3[8:1]/6,,7b,,1,,8-6[8:1],,2,,8,,
1-5[8:1],,7,,1,,8-4[8:1],,2,,8,,1,,15,,26,,37,,37,,4b/5b,,6,,56,,3,,34,,
7,,76,,2,,2/3b,,7,8,6,,2,1,3,,4,,5,,6,5,7b,,7-4[8:1]/5-2[8:1],,,,5/7,,,,
{32}1^4[8:1]/8-4[8:1],7,6,5,,,,,1b/8,,,,,,,,,,,,E
