&title=GERBERA
&artist=BEMANI Sound Team "TAG"
&first=0
&des=MMFC Chart Team "Benren"
&lv_5=14 | 14.5
&inote_5=(205){1},
{8}
3xh[4:3]/4x,,,4,4,,4,,
5,4/5,,6,5/6,,4/5,,
6xh[4:3]/5x,,,5,5,,5,,
4,5/4,,3,4/3,,4/5,,
2xh[4:3]/4x,,,3,3,,4,,
4,4/3,,5,5/4,,6/5,,
7xh[4:3]/5x,,,6,6,,5,5bs1[8:3]*z1b[8:3],
,,,,,,3x/7x,,
{16}
1b/6b,,3x,4,2,4,3,5,4x,,1x/6,,2,,3xbh[4:1]/7b,,
,,6x,5,7,5,6,4,5x,,8x/3,,7,,6xbh[4:1]/1b,,
,,2x,4,3,4,2,5,3x,,4x/8,,7,,1xbh[4:1]/6b,,
,,7x,8,6,1,5,2,4x,,2x,,3x/5,,4xbh[4:1]/6b,,
,,6x,5,7,5,6,4,7x,,8/1x,,2,,5xhb[4:1]/3b,,
,,3x,4,2,4,3,5,2,4,3,5,4x-8[8:1],,,,
4b/6x,,,,7x,1,7,1,8x,,2,,3/4,,4xh[8:1]/5h[8:1],,
,,4h[16:1]/5xh[16:1],,4xh[16:1]/5h[16:1],,4h[16:1]/5xh[16:1],,4xh[16:1]/5h[16:1],,4h[16:1]/5xh[16:1],,4xh[16:1]/5h[16:1],,4h[16:1]/5xh[16:1],,
6xh[64:1],,,,6h[64:1]/B3,,,,6h[64:1]/B4,,,,6h[64:1]/B5,,,,
3xh[64:1],,,,3h[64:1]/B6,,,,3h[64:1]/B5,,,,3h[64:1]/B4,,,,
1xh[64:1]/8xh[64:1],,,,2h[64:1]/7h[64:1],,,,3h[64:1]/6h[64:1],,,,4h[64:1]/5h[64:1],,,,
4xv3-8[4:2]/5xv6-1[4:2],,,,,,,,,,,,,,,,
{8}
2x-5[8:1]/8x,,2/5,6,7h[4:1],,4,,
3h[4:1],,5<1[4:1],,1<5[4:1],,3,,
1q5[8:1],,5/1,6,7-4[8:1],,8,,
1-7[8:1],,2,,3-1[8:1],,4,,
7-4[8:1],,7/4,3,2h[4:1],,5,,
6h[4:1],,4>8[4:1],,8>4[4:1],,6,,
8p4[8:1],,4/8,3,2-5[8:1],,1,,
8-2[8:1],,7,,6-8[8:1],,5,,
2x>5[8:1],,2/6,7,8h[4:1],,4,,
3,3h[8:1],8V64[4:1],,4V68[4:1],,8,,
2q6[8:1],,6/2,7,8p4[8:1],,8,,
2-5[8:1],,1,,8-3[8:1],,7,,
7<4[8:1],,7/3,2,1h[4:1],,5,,
6h[4:1],,1V35[4:1],,5V31[4:1],,1,,
7p3[8:1],,3/7,2,1q5[8:1],,1,,
7-4[8:1],,1-5[8:1],,6,,4x/7x,,
{16}
1b>4[8:1]/5b,,,,1,,6,6,5x-1[8:1],,,,5x/8x,,7,,
6x/2xh[16:3],,,4,3,,6,,1x-4[8:1]/7x-4[8:1],,,,1/7,,,,
2x/5x,,3,,4,,6,5,7-4[8:1],,4,,3,,2,,
1x/5x,,,2,4,,3,,4xv7[8:1]*v1[8:1],,,,4,,,,
8xb<5[8:1]/2xb,,,,8,,3,3,4x-8[8:1],,4x,,1x,,2,,
3x/7xh[16:3],,,5,6,,3,,8x-5[8:1]/2x-5[8:1],,,,8/2,,,,
7x/4x,,6,,5,,3,4,2-5[8:1],,5,,6,,7,,
8x/4x,,,7,5,,6,,5x/1x,,2,,3,,4,,
1xb<5[8:1]/5x,,,,1/2,,3,3,4x-8[8:1],,,,4x/1x,,2,,
3x/7xh[16:3],,,5,6,,1,,8x-5[8:1]/2x-5[8:1],,,,8/2,,,,
7x/4x,,6,,5,,3,4,2v5[8:1],,5,,6,,7,,
8x/4x,,,7,5,,6,,5xp1[8:1],,,,5/6h[4:1],,,,
8xb>4[8:1],,,,7/8,,6,6,5x-1[8:1],,5x,,8x,,7,,
6x/2xh[16:3],,,4,3,,8,,1x-4[8:1]/7x-4[8:1],,,,1/7,,,,
2x/5x,,3,,4,,6,5,7v4[8:1],,4,,3,,2,,
1x/5x,,,2,4,,3,,4xw8[8:1]/8x,,,,4x,,,,
{16}
2b<2[4:14]/6b,,,,,,,,,,,,,,,,
,,,,,,,,,,,,,,,,
Ch[4:6],,,,,,,,,,,,,,,,
,,,,,,,,,,,,,,,,
7xV13V57[4:9]/3x,,,,,,,,,,,,,,,,
,,,,,,,,,,,,,,,,
2xh[4:4],,,,,,,,,,,,,,,,
1<4[4:2],,,,,,,,,,,,,,,,
{16}
3x/4x,,,,3,,4,,3/4,,,,2/4,,,,
4,,2,,2/4,,,,3/4,,,4,3,,4/5,,
6x/5x,,,,6,,5,,6/5,,,,7/5,,,,
5,,7,,7/5,,,,6/5,,,5,6,,5/4,,
3x/4x,,,,3,,4,,3/4,,,,2/4,,3,,
4,,2,,2/4,,,,3/4,,,4,3,,4/5,,
4b,5,4,5,3,6,3,6,4,5,4,5,4,5s1[16:7],4xbz8b[8:3],,
,,,,,,,,,,,,2x/7x,,,,
1b/6b,,2,4,3,5,4,6,3xv8[8:1],,7x-4b[8:1],,3x,,7b,,
,,1x,6,2,7,3,8,2xv5[8:1],,8x-5b[8:1],,2x,,8b,,
,,4x,6,3,5,2,4,1xv4[8:1],,6x-1b[8:1],,1x,,6b,,
,,2x,1x,3,8,4,7,5x,,5xv2[8:1],,7xh[8:1],,5xb,,
,,5x,3,6,4,7,5,8x-5[8:1],,3xv8b[8:1],,8x,,3b,,
,,6x,2,4,3,5,4,6,5,7,6,8xw4[8:1],,,,
8xb,,,,2x/6x,,3,,5xb/2x,,6x/4b,,7b/3x,,8x/2b,,
,,1,1,1,1,1,1,1x>4[8:1]*<6[8:1],,,,1xw5[8:1],,,,
1b,,,,3x/7x,,3x-8[8:1]/7x-4[8:1],,,,3b/7b,,,,1b/5b,,
,,3x,4,2,5,3,6,4,5,3,6,5x-1[8:1],,,,
5b/6x,,8x,7,6,2,3,4,5xh[8:1]/6xbh[8:1],,,2xbh[8:1]/8xh[8:1],,,3x/4x,,
5b/7b,,,,1x-4[8:1]*-6[8:1]/6x,,1x,,,,,,3/7,,,,
{16}2bh[16:3]/5x,,,1hb[16:3],,,8b,,5x/7xbh[4:1],,,,{24}2x,1,8,7,6,5,
{16}7xbh[16:3]/4x,,,8xhb[16:3],,,1b,,4x/2xbh[4:1],,,,{24}7x,8,1,2,3,4,
{16}5xb/1xb,,3x,4,2,4,3,5,2hb[8:1],,,3xh[8:1]/4hb[8:1],,,4b/5x,,
5x-1[8:1]/6b,,,,5x,,,,2xv5[8:1]/8xv5b[8:1],,,,2x/8x,,,,
4x/6xh[4:1],,7x,8,1,2,3,4,5x/6x,,7x/8,,1/2x,,3/4xh[4:1],,
,,1,2,7,6,2,3,6,5,3,4,8xb,,,,
1b/6b,,2x,4,3,6,4,7,5x-2[8:1],,8xv5b[8:1],,5,,8b,,
,,1x,7,2,6,3,5,4xv1[8:1],,7x-4b[8:1],,4x,,7b,,
,,2x,5,3,6,4,5,3x-8[8:1],,7xv4b[8:1],,3x,,7b,,
,,2x,5,4,6,3,4,2,5,3,6,4x-8[8:1],,,,
4b/6x,,,,7x,1,7,1,8bV64[16:3],,2x-6b[8:1],,8x,,2b,,
,,7x,8,1,2,3,4,5x/6x-2[8:1],,,,6x/8bw4b[8:1],,,,
8b,,,,2x/6x,,2x-5[8:1]/6x-1[8:1],,,,2b/6b,,,,4b/8b,,
,,7x,5,6,5,7,4,5,3,5,4,7b,,,,
5xb/1b,,3x,4,2,5,4,6,1bh[8:1],,,3xh[8:1]/7hb[8:1],,,2b/5x,,
{24}
4x/8x<5[8:1],,,,,,4x/8b>3[8:1],,,,,,4x/8b-4[8:1],,,,,,4x/8b,,,,,,
{16}2b-6b[16:1],,,1b-5b[16:1],,,8xb-4b[16:1],,7xhb[4:1],,,,{24}2x,1x,8x,7x,6x,5x,
{16}7xb-3b[16:1]/4x,,,8xb-4b[16:1],,,1xb-5b[16:1],,2xhb[4:1],,,,{24}7x,8x,1x,2x,3x,4x,
{16}5xb/1xb,,2,4,3,6,5,7,1bh[8:1],,,8bh[8:1]/3h[8:1],,,2xb/5xb,,
{12}3,3,6,8,8,4,2,2,8,3x/7x,,,
{8}
6b/1x,2,3/8,7,6/2,3,4/7,6,
5x/1x,3,4/8,6,5/1,3,4/8,6x,
5x/1x,5/1,6/2,6/2,7/3,7/3,8/4,8/4,
{16}
5x,1,4,8,3x,7,2,6,
{32}
1xb/5x,8,7,6,5x,4,3,2,1xbw5b[8:1],8,7,6,5x,4,3,2,
{64}
1xb,B1,Cf,B5/B4/B6,,,,,,,,,,,,,,,,,,,,,,,,,,,,,
,,,,,,,,,,,,,,,,,,,,,,,,,,,,,,,,
,,,,,,,,,,,,,,,,,,,,,,,,,,,,,,,,
,,,,,,,,,,,,,,,,,,,,,,,,,,,,,,,,
