&title=乞丐跳舞
&artist=未知艺术家
&first=0
&des=nyan,1,2,3,nyan,arigatou
&lv_6=m
&lv_7=w
&inote_6=(102)
{1},,
{48}
1b-5[8:1]/8b,27,36,45,,,,,,,,,
{4}
8>2-5>3[4:1],7>1v3<5b[4:1],,
{48}
2b>5b[12:1],1,8,7,,,,,,,,,6b>3[12:1],7,8,1,,,,,,,,,
2bq6b[12:1],1,8,7,,,,,,,,,6b,7,8,1,2,,,,,,,,
{48}
8b-4[8:1]/1b,72,63,54,,,,,,,,,
{4}
1<7-4<6[4:1],2<8v6>4b[4:1],,
{48}
7b<4b[12:1],8,1,2,,,,,,,,,3b<6[12:1],2,1,8,,,,,,,,,
7bp3b[12:1],8,1,2,,,,,,,,,3b,2,1,8,7,,,,,,,,
{48}
4b-8[8:1]/5b,36,27,18,,,,,,,,,
{4}
4-1[8:1]*-7[8:1],4w8b[8:1],,
{16}
16,2,
{48}
25,36,47,5h[16:1]/8,,,1,4/8-4[204#8:1],37,26,,,
{16}
8,1,
{48}
25,36,47,5h[16:1]/8,,,1,4/8-4[204#8:1],37,2-6[204#8:1]/6,,,
{16}
8,2,1,
{48}
15,48,37,{4}2b/6b/4!-8[8:1],
{4}
4-1[8:1]*-7[8:1],4w8b[8:1],,
{16}
2,3,4,5,
{24}
6,7,8,1,2,3,
{32}
4,5,6,7,8,1,2,3,
{48}
4b,5b,6b,7b,8b,1b-5[1145141919810##0],
&inote_7=(102)
{1},
{48}
,,,,,,,,,,Ch[48:26]f,,
{4},,,
4!-1[0.0##0.3]/5!-8[0.0##0.3]/4b/5b,
3!-8[0.0##0.3]/7!-4[0##0.3]/3/7,
{16}
B7h[16:3]/B8f/5h[16:3],,,{64},4x/B6,3x/B5,2x/B4,{4}1x/E4,
3!-6[0.0##0.3]/5!-8[0.0##0.3]/3b/5b,
{48}
E1,B8/B1,E2/E8,{16}2h[16:1]/7h[16:1],,,
{16}
B2h[16:3]/B1f/4h[16:3],,,{64},5x/B3,6x/B4,7x/B5,{4}8x/E6,
{4}
5!-8[0.0##0.3]/4!-1[0.0##0.3]/5b/4b,
6!-1[0.0##0.3]/2!-5[0##0.3]/6/2,
{16}
B2h[16:3]/B1f/4h[16:3],,,{64},5x/B3,6x/B4,7x/B5,{4}8x/E6,
6!-3[0.0##0.3]/4!-1[0.0##0.3]/6b/4b,
{48}
E1,B1/B8,E8/E2,{16}7h[16:1]/2h[16:1],,,
{16}
B7h[16:3]/B8f/5h[16:3],,,{64},4x/B6,3x/B5,2x/B4,{4}1x/E4,
{4}
4!-1[0.0##0.3]/5!-8[0.0##0.3]/4b/5b,
3!-8[0.0##0.3]/7!-4[0##0.3]/3/7,
{16}
B7h[16:3]/B8f/5h[16:3],,,{64},4x/B6,3x/B5,2x/B4,{4}1x/E4,
3!-6[0.0##0.3]/5!-8[0.0##0.3]/3b/5b,
{48}
E1,B8/B1,E2/E8,{16}2h[16:1]/7h[16:1],,,
{16}
B2h[16:3]/B1f/4h[16:3],,,{64},5x/B3,6x/B4,7x/B5,{4}8x/E6,
{4}
5!-8[0.0##0.3]/4!-1[0.0##0.3]/5b/4b,
6!-1[0.0##0.3]/2!-5[0##0.3]/6/2,
{16}
B2h[16:3]/B1f/4h[16:3],,,{64},5x/B3,6x/B4,7x/B5,{4}8x/E6,
6!-3[0.0##0.3]/4!-1[0.0##0.3]/6b/4b,
{48}
E1,B1/B8,E8/E2,{16}7h[16:1]/2h[16:1],,,
{16}
B7h[16:3]/B8f/5h[16:3],,,{64},4x/B6,3x/B5,2x/B4,{4}1xh[1:3]/E4h[1:3],
