&title=Not Alone
&artist=RiraN
&first=0.02
&des=IcreApte-100
&des_5=IcreApte-100
&des_6=Of vs Crystal
&lv_5=13+
&lv_6=13+
&inote_5=(160){1},
{1},
{8}3,4,5,6,6,5,4h[1:1],,
{8},,,3x>5[8:3],,,,,
{8}2,1,8,7,7,8,1h[1:1],,
{8},,,4,4q7[2:1],,,,
{8},,1,2,3h[8:3],,8z4[8:3],8,
{8},4>1[16:5]*<7[16:5],4,,,,,2x>8[1:1]/6x>8[1:1],
{1},
{2},4w8[8:1],
{16}2xb/6xb,,,,3/4,,4/5,,5/6,,7,4,,,5/6,,
{16}5<3[8:3]/6h[2:1],,,,,,,,,,6,,7,,8,,
{16}4,,,,6/5,,5/4,,4/3,,2,5,,,4/3,,
{16}4qq7[2:1]/3h[4:1],,,,,,,,,,1x,,2x,,3x,,
{16}8,,,,2/1,,8/1,,7/8,,6,1,,,7/8,,
{16}7V53[4:1]/8,,,1x,,,2,,2V86[4:1],,,,4x,,4x,,
{16}4xh[2:1],,,,5x,,6,,7,,8/4,8x/4x,,,1xpp7[16:10]/5x,,
{1}1/5pp3[16:8],
{4}8x>3[8:1]/4x,4,8<5[8:1]/4,4,
{16}8-3[8:1]/4,,,,4,,,,8-5[8:1]/4,,,3,8,,2,,
{4}1x<6[8:1]/5x,5,1>4[8:1]/5,5,
{16}1-6[8:1]/5,,,,5,,,,1-4[8:1]/5,,,6,1,,7,,
{16}8x/4x,,8x/4x,,8x/4x,,7,5,6,,7,,8/4,,3,1,
{16}2,,3,,8/4,,7,5,6,,7,,8/4,,3,1,
{16}2,8,2,8,3,7,3,7,4,6,4,6,3,5,3,5,
{1}2xbq4[2:1]/6xbq8[2:1],
{32}3xh[8:1]/7x,6x,5x,,,,,,3xh[8:1]/7x,6x,5x,,,,,,2xh[8:1]/6x,5x,4x,,,,,,2xh[8:1]/6x,5x,4x,,,,,,
{32}3xh[8:1]/7x,6x,5x,,,,,,3xh[8:1]/7x,6x,5x,,,,,,2xh[8:1]/6x-1[8:1],5x,4x,,,,,,6>3[8:1]/2<7[8:1],,,,3,,,,
{32}2xb/6xb,,,,,,,,6xh[8:1]/2x,3x,4x,,,,,,6xh[8:1]/2x,3x,4x,,,,,,7v5[8:1]/3v8[8:1],,,,4/8,,,,
{32}7b/3b,,,,,,,,6xh[8:1]/1x,2x,3x,,,,,,7x/4x,,7x/4x,,,,,,8b/4b,,,,,,,,{32}4xh[8:1]/8x,7x,6x,,,,,,4xh[8:1]/8x,7x,6x,,,,,,3xh[8:1]/7x,6x,5x,,,,,,3xh[8:1]/7x,6x,5x,,,,,,
{32}4xh[8:1]/8x,7x,6x,,,,,,4xh[8:1]/8x,7x,6x,,,,,,3xh[8:1]/7x-2[8:1],6x,5x,,,,,,7<4[8:1]/3>8[8:1],,,,4,,,,
{32}3xb/7xb,,,,,,,,5xh[8:1]/1x,2x,3x,,,,,,5xh[8:1]/1x,2x,3x,,,,,,1v4[8:1]/5v8[8:1],,,,2/6,,,,
{2}1b<2[4:1]/5b,Cf,
{32}1x-7[8:1]*-6[8:1],2x,3x,4x,,,,,1b,,,,,,,,1x-6[8:1]*-7[8:1],2x,3x,4x,,,,,1b,,,,,,,,
{32}1x-5[8:1]*-6[8:1],2x,3x,4x,,,,,1b,,,,,,,,1x-6[8:1],2x,3x,4x,,,,,1/4w8[8:1],,,,3,,,,
{32}4xb,,,,,,,,1xv4[8:1]/7xv4[8:1],2x/6x,3x/5x,4x,,,,,1b/7b,,,,,,,,3v8[8:1]/5v8[8:1],,,,2/6,,,,
{32}3b/5b,,,,,,,,7xh[8:1]/1x,2x,3x,4x,,,,,8x/4x,,8x/4x,,,,7x/3x,,7xb/3xb,,,,,,,,
{16}2/6,,2/6,,2/6,,3,5,4,,3,,2/6,,7,1,
{16}8,,7,,2/6,,3,5,4,,3,,2/6,,7,1,
{16}8,2,8,2,7,3,7,3,6,4,6,4,5,3,5,3,
{32}6x,7x,8x,1x,2x,3x,4x,5x,6x,7x,8x,1x,2x,3x,4x,5x,6x/2x,,,,7x/3x,,,,8x/4x,,,,1xqq6[8:11]/5xqq2[8:11],,,,
{1},
{1},
{8}6/3,5,4,3,3/6,4,5h[1:1],,
{8},,,6x<4[8:3],,,,,
{8}7,8,1,2,2/7,1,8h[1:1],,
{8},,,5,5p2[2:1],,,,
{8},,8,7,6h[8:3],,1s5[8:3],1,
{8},5V38[16:5]*V72[16:5],5,,,,,7x<2[1:1]/3x<8[1:1],
{1},
{2},5w1[8:1],
{16}7xb/3xb,,,,7/5,,6/4,,5/3,,2,4,,,1/5,,
{16}5>6[8:3]/1h[2:1],,,,,,,,,,1,,2,,3,,
{16}5/3,,,,2/4,,3/5,,4/6,,7,5,,,8/4,,
{16}4pp2[2:1]/8h[4:1],,,,,,,,,,8x,,7x,,6x,,
{16}1,,,,6/8,,1/7,,2/8,,3x/7x,3x/7x,,,2/1,,
{16}3/8V64[16:3],,,4V61[4:1],,,3,,2,,,,2,,3/8,,
{16}4xh[2:1]/7,,,,5x,,6,,7,,8/4,8x/4x,,,7/3,,
{16}7-4[8:1]/3-8[8:1],,,,,,,,,,1/5,,2/6,,3/7,,
{16}4h[4:1]/8,,,,7,,6,,4/7,,6,5,7,,7,,
{16}7h[4:1]/4v3[16:3],,,,,,,,,,8x/4x,,7/3,,2/6,,
{16}5h[4:1]/1,,,,2,,3,,5/2,,3,4,2,,2,,
{16}2h[4:1]/5v6[16:3],,,,,,,,,,1x/5x,,2/6,,7/3,,
{16}4h[4:1]/8,,,,7,,6,,5/3,,2,1,2,,3/8,,
{16}4/7,,,3/6,,,2/5,,2/5,,,,1>4[8:1]/5<8[8:1],,8/4,,
{16}5b/1b,,,,8x/4x,,7/3,,2/6,,3,5,2,,1/6,,
{1}1qq2[2:1]/6pp3[2:1],
{4}1x<6[8:1]/5x,5/1,1>4[8:1]/5,5/1,
{16}1-6[8:1]/5,,,,5/1,,,,1-4[8:1]/5,,,6,1,,7,,
{4}8x>3[8:1]/4x,4/8,8<5[8:1]/4,4/8,
{16}8-3[8:1]/4,,,,4/8,,,,8-5[8:1]/4,,,3,8,,2,,
{16}1x/5x,,1x/5x,,1x/5x,,2,4,3,,2,,1/5,,6,8,
{16}7,,6,,1/5,,2,4,3,,2,,1/5,,6,8,
{16}7,1,7,1,6,2,6,2,5,3,5,3,6,4,6,4,
{1}7xbp5[2:1]/3xbp1[2:1],
{16}2xb>5[8:1]/6xb,,,,7/2,,8,,7/3,,2,5,1-4[8:1],,2,,
{16}1x-6[8:1]/3x,,,,1x-5[8:1]/7x,,,,1x/4x,,3,,2,,1,,
{16}1xb>4[8:1]/5xb,,,,6/1,,7,,4x/8,,7,5,6-1[8:1],,7,,
{16}2-5[8:1]/6,,,,7-3[8:1]/2,,,,7/1-5[8:1],,2,,1b>4[8:1]/6b-8[8:1],,7,,
{16}1xb/6xb,,,,8x/4x,,7,,6/2,,3,5,1<6[32:3],,3,,
{16}1x>4[32:3],,,1x-5[32:3],,,1x,,3x,,,,2-8[8:1]/6-4[8:1],,3/7,,
{16}2b/6b,,,,1x/5x,,2/6,,3/7,,
{32}8x,1x,2x,3x,4x,5x,6x,7x,
{16}8x/4x,,
{16}8xb/4xb,,,,3xb/7xb,,3xb/7xb,,2xb/6xb,2xb/6xb,2xb/6xb,,
{32}1xb/7xb,2xb/6xb,3xb/5xb,4xb,,,,,
{16}7xb-4[8:1]/3xb,,,,2/7,,1,,2/6,,7,4,8-5[8:1],,7,,
{16}8x-3[8:1]/6x,,,,8x-4[8:1]/2x,,,,8x/4x,,5,,6,,7,,
{16}8xb-5[8:1]/4xb,,,,3/8,,2,,5x/1,,2,4,3-8[8:1],,2,,
{16}7-4[8:1]/3,,,,2/7,,,,2xb/8xb,2/8,,4xb/6xb,4v1[8:1]/6v1[8:1],,3/7,,
{16}4xb/6xb,,,,2x/8x,,3/7,,6/4,,6,4,8>3[32:3],,7/1,,
{16}8x<5[32:3],,,8x-4[32:3],,,8x,,6x,,,,7-2[8:1]/3-6[8:1],,6/2,,
{16}7b/3b,,,,8x/4x,,7/3,,6b/2b,6/2,,1b/5b,1/5,,8/4x,,
{8}8-3[8:1]/4-7[8:1],,,,,3/7,2/6,1/5,
{4}1x-7[8:1]/5xh[8:1],5h[8:1]/1-3[8:1],1-7[8:1]/5xh[8:1],5h[8:1]/1-3[8:1],
{8}1x-7[8:1]/5xh[8:1],,5h[8:1]/1-3[8:1],,1-7[8:1]/5xh[8:1],,5/1-3[8:1],5,
{8}1x-6[8:1]/5xh[8:1],,5h[8:1]/1-4[8:1],,1-6[8:1]/5xh[8:1],,5h[8:1]/1-4[8:1],,
{16}1x-6[8:1]/5xh[8:1],,,,5h[8:1]/1,,,,1x/5x,1x/5x,,2x/6x,2x/6x,,3x/7x,,
{4}8x-2[8:1]/4xh[8:1],4h[8:1]/8-6[8:1],8-2[8:1]/4xh[8:1],4h[8:1]/8-6[8:1],
{8}8x-2[8:1]/4xh[8:1],,4h[8:1]/8-6[8:1],,4/8,4,
{16}8x/4x,,8x/4x,7x/3x,
{16}6x/2x,,,,1xb/5xb,,1xb/5xb,,2xb/6xb,2xb/6xb,,8xb/4xb,8xb/4xb,,1xb/5xb,,
{1}Chf[1:1],
{1}E1/E2/E3/E4/E5/E6/E7/E8/B1/B2/B3/B4/B5/B6/B7/B8,
{1},
{1},
E
&inote_6=(160){1},
{1},
{8}6h[1:1],2pp5[8:5],,,,,,,
{8},,,6,4h[4:1]/7,,E7`B6,,
{8},1qq6[8:5]/3h[8:9],,,,,,,
{8},,,3,2/5h[8:3],,,E3`B3,
{8},,1,2,3h[4:1],,6,7h[8:5]/4,
{8},,4>1[4:1],,,,,8x<1[8:9],
{1},
{2},4xh[2:1],
{16}7h[4:1],,,,3,,4,,2/5,,3,4,,,3,,
{16}2-8[8:1]/6,,,,,,,,,,5,,6,,7,,
{16}2h[4:1],,,,6,,5,,7/4,,6,5,,,6,,
{16}7-1[8:1]/4,,,,,,,,,,4,,3,,2,,
{16}6h[4:1],,,,8,,7,,1/6,,7,8,,,7,,
{16}1/7h[16:3],,,6h[16:3],,,5,,5h[4:1],,,,2,,4,,
{16}3h[4:1],,,,1,,2,,3/8,,2,1,,,2,,
{1}3V52[2:1]/7V16[2:1],
{4}1x/5x-7[8:1],1,1/8-4[8:1],1,
{16}5-8[8:1]/2,,,,2,,,,2,,,2,1,,3,,
{4}8x/4x-2[8:1],8,8/1-5[8:1],8,
{16}4-1[8:1]/7,,,,7,,,,7,,,7,8,,6,,
{16}1,,1,,1,,8,2,8,,8,,8,,3,7,
{16}3,,3,,3,,6,4,6,,6,,6,,3,5,
{16}2,4,2,4,3,5,3,5,4,6,4,6,5,7,5,7,
{1}8bqq4[2:1]/4bqq8[2:1],
{4}1-5[8:1]/5,7-4[8:1]/1,2-6[8:1]/7,2/8-4[8:1],
{8}8/3-1[8:1],,3/5w1[8:1],,5,,3/7-5[8:1],8,
{8}3>8[8:1]/7,,7<4[8:1]/3,,7/1,,2-4[8:1]/5,1,
{16}2-8[8:1]/5,,,,6/2,,,,1x/7x,1/7,,2/6,2b/6b-8[8:1],,,,
{4}6-4[8:1]/3,1-5[8:1]/6,7-3[8:1]/1,2-6[8:1]/7,
{8}8-5[8:1]/2,,8/1-4[8:1],,1/7,,2-4[8:1]/6,1,
{16}2/6-1[8:1],,,,3/6,,,,2/8,,,7/3,7-4[8:1]/3qq8[4:3],,8,,
{1}7bqq4[2:1],
{4}1>4[8:1]/5,1/6-1[8:1],2-5[8:1]/6,2/7-3[8:1],
{8}5xw1[8:1]/7,,5,,3/7,,2-4[8:1]/5-1[8:1],1,
{8}2/5,,8-6[8:1],,3/8,,7-5[8:1]/4-8[8:1],8,
{16}7/4,,,,2/4,,,,1/5,1/5,,2/6,2b/6b,,3/7,,
{16}2,,2,,2,,3,5,4,,7,,7,,6,4,
{16}5,,3,,3,,4,6,5,,6,,6,,6,4,
{16}7,5,7,5,6,4,6,4,5,3,5,3,4,2,4,2,
{32}E4,E3,E2,E1,E8,E7,E6,E5,Cf,,,,,,,,,,,,
{8}7x/3x,6/2,1bV38[4:6]/5bV74[4:6],
{1},
{1},
{8}2,2pp5[8:5],,,8h[2:1],,,,
{8},,,6,4h[4:1]/7-1[8:1],,,,
{8}8,8qq4[8:5],,,2h[2:1],,,,
{8},,,3,2-8[8:1]/5h[8:3],,,,
{8},,1/5,,3h[4:1]/7,,7,8h[8:5]/4,
{8},,4>1[4:1],,,,,4x>5[8:11],
{1},
{2},1h[2:1],
{16}6h[4:1],,,,1,,2,,3/7,,2,8,,,2/8,,
{16}3V52[8:3]/7,,,,,,,,,,8,,7,,6,,
{16}5h[4:1]/1,,,,1,,2,,3/7,,6,4,,,6/4,,
{16}7V16[8:3]/3,,,,,,,,,,4,,3,,2,,
{16}1/6h[4:1],,,,2,,3,,4/7,,5,6,,,4/7,,
{16}4/7h[16:3],,,3h[16:3],,,5,,6/2h[4:1],,,,6,,7,,
{16}8h[4:1]/4,,,,4,,3,,2/6,,3,5,,,2/6,,
{2}2<4[8:3]/6,
{8},1x,8x,7x,
{16}6xh[4:1],,,,1,,2,,3,,4V28[4:1],8,,,4/7,,
{16}6V42[4:1],,,,6h[4:1],,,,,,8x,,7,,6,,
{16}5h[4:1]/1,,,,1,,2,,3/7,,8V64[4:1],4,,,8/3,,
{16}2V86[4:1],,,,2h[4:1],,,,,,4x,,3,,2,,
{16}1/6h[4:1],,,,2,,3,,4/7,,8V64[4:1],5,,,8/4,,
{16}3,,,2,,,1,,4/1V35[4:1],,,,6,,7,,
{16}8h[4:1],,,,4,,3,,2/6,,1>4[8:1],5,,,1pp4[8:5]/6,,
{1}7bqq4[2:1],
{4}5-7[8:1]/2,5/3,2/8-4[8:1],8/4,
{16}5-8[8:1]/3,,,,2/5,,,,2,,,2/1,1/2,,3/8,,
{4}4-2[8:1]/7,4/6,6/1-5[8:1],1/5,
{16}4-1[8:1]/6,,,,7/4,,,,7,,,7/8,8/7,,6/1,,
{16}1,,1,,1/8,,8,2,8,,8,,8/3,,3,7,
{16}3,,3,,3/6,,6,4,6,,6,,6/3,,3,5,
{16}2,4,2,4,3,5,3,5,4,6,4,6,5,7,5,7,
{32}4x,3,2,1,8,7,6,5,4,3,2,1,8,7,6,5,4,3,2,1,8,7,6,5,8xbw4[8:1]/4xb,,,,,,,,
{16}8b,,,,6-8[8:1]/2,,7,,6-4[8:1]/3,,2,2,6-1[8:1],,1-5[8:1],,
{16}6,,,,4-2[8:1],,,,4/7-1[8:1],,6,,7-5[8:1]/3-8[8:1],,4,,
{16}7/3,,,,6/2-4[8:1],,1,,7/2-8[8:1],,6,6,2-5[8:1],,5-1[8:1],,
{16}2,,,,8-6[8:1],,,,8/2-4[8:1],,1-5[8:1],,2,,1,,
{16}3,,,,7-5[8:1]/3,,6,,7>2[8:1]/2,,3,3,7<4[8:1],,4-8[8:1],,
{16}7,,,1,,,2,,3-5[8:1]/8,,,,7-4[8:1]/3v8[8:1],,8,,
{16}3b/7b,,,,1>4[8:1],,5,,1<6[8:1],,5,5,1>4[8:1],,4-8[8:1],,
{16}1b,,,,5,,1x/6x,,7,8,7,,
{32}1b,2,3,4,5,6,7,8,
{16}1b/5b,,,,
{16}3-1[8:1]/7,,4,,3-5[8:1]/7,,6,6,3-8[8:1],,8V24[4:1],,
{16}3,,,,5-1[8:1],,,,5/7-4[8:1],,8,,2-5[8:1]/7-1[8:1],,3,,
{16}7/2,,,,4/7-5[8:1],,8,,3/7-1[8:1],,2,2,7-4[8:1],,4V68[4:1],,
{16}7,,,,2,,,,3xb/1xb,3/1,,7xb/5xb,7-5[8:1]/5-8[8:1],,8V24[4:1],,
{16}7b/5b,,,,6x,,7,,8<5[8:1],,5,5,8-4[8:1],,4V61[4:1],,
{16}8,,,3,,,2,,2<7[8:1],,3,,2-5[8:1]/6v1[8:1],,5,,
{16}6b/2b,,,,8x/4x,,8/4,,7b/3b,7/3,,6b/2b,6-1[8:1]/2-5[8:1],,1/5,,
{4}2b<3[4:1]/6b,2,Cf,,
{4}8<5[8:1]/3,8>3[8:1]/5,8<5[8:1]/3,8>3[8:1]/5,
{8}8<5[8:1]/3,,8/4-1[8:1]*-7[8:1],,4,,2/6,2/6,
{4}1>4[8:1]/5,1<6[8:1]/4,1>4[8:1]/6,1<6[8:1]/4,
{16}1/5-2[8:1]*-8[8:1],,,,5,,,,3/7,3/7,,2/6,2v5[8:1]/6v1[8:1],,3/7,,
{8}2/6,,8x<5[8:1]/4x,1,8/3-8[8:1],,7-4[8:1]/3,,
{16}7/2-5[8:1]*-6[8:1],,,,2,,,,4/7,,4/7,,4/7,,8,3,
{16}8<5[8:1],,,,8/2,,3,,3x/4x,3x/4x,,2/5,2-4[8:1]/5-1[8:1],,1,,
{4}2<7[8:1]/5,6>3[8:1],1<6[8:1],4w8[8:1],
{1}Cf,
{1},
{1},
E
