&title=ヒステリックナイトガール -Awakening-
&artist=PSYQUI(ft. SUCH)
&first=0.157
&des=Fr4ctur3y2
&lv_5=14
&des_5=Fr4ctur3y2
&inote_5=
(160){4},,,,1>4[4:1],
6,8<5[4:1],3,
1>4[4:1],7,1p4[4:1],2,
8-6[4:1],6-2[4:1],2-4[4:1],5,
1-5[4:1],7V52b[4:1],,,4/2,
3-7[4:1],6,5-2-7-4[8:7],
,,{2}3v8b[8:1],
{8}2/6,{16}3,3,{8}5,{16}5,4,5,3,4,3,{8}5,6/4,
7/3,{16}6,6,{8}4,{16}4,5,4,6,5,6,{8}4,7/1,
6/2,{16}7,7,{8}1,{16}1,8,1,7,8,7,{4}1,
{8}6/2,2,{16}8-4[16:1],1,7,2,{2}8,
{8}2/8-5[16:1],{16}1,7,{8}8,{16}6,4,5,3,4,3,{8}5,8/6,
7/1-4[16:1],{16}8,2,{8}1,{16}3,5,4,6,5,6,{8}4,4/2,
3/5-8[16:1],{16}4,6,{8}5,{16}7,1,8,2,1,2,{4}8,
{8}6/2,6,{16}4-8b[16:1],5,3,6,{4}A4f,{64}B6/B2,E7,E3,B7,{16}B3,,8,
,,{8}7,2,3,{16}4,4,6,6,3,5,,6/4,
,,{8}5/3,2/4,{16}3,5,,,{8}4-1[16:1],,4/5,
6,6,{16}2,6,,1,,,8,2,7p7[4:3],3p3[16:11],,C,
,,,,,,,,,,,,,,,1,
,,{8}2,7,6,{16}5,5,,2,,2,,4/2,
,,{8}5/3,{16}6/4,7,,5-8[16:1],,,{8}5/4,{16},1,,8,
,2,3,8,7,3,{8}4,{16}6x,7x,,4x-8[16:1],,3-5-7-1[16:11]/5-3-1-7[16:11],,4x,
,,,,,,,,,,,,,,,,{4}8-3pp4[2:1]/2-7[16:3],
2b/8b,{8},,,,2,
3,7/4,{16}6,5,,,{8}4-1[16:1],{16},5/4,,,{8}6,
2/5,{16}6/4,,,1xh[16:3],,,7,1,5,3,8,2,
{1}3q7[2:1]/7<3[2:1],
{4}2-6>4[2:1]/8v6>4[2:1],8b/D2/A2,{8},,,,3,
4,5,{16}4/6-1[16:1],7/3,,,,,,,{8}8/2,
{16},,5,3,6,4,,,6,4,,4,,6,7,8,
{4}1-4[16:1]*-4[16:1],{32}B1,B2,{16}B3,,,{4}1-4[16:1]*-4[16:1],{32}C,B3,{16}E4,,,{2}8-3-6-1-6-3-8-3v6-1-6v3-8[4:15],
A1,
A2,A3,
A4,A5,
A6,A7,
{4}B4,3/5,B5,6/4,
E2,8/3,E8,1/6,
{8}3,7,2,6,{16}1,7,1,7,{64}1-5b[1.5##0.0938],8-4b[1.4766##0.0938],7,6,5,4,3,2,{8}8xh[8:5]/1xh[8:5],
,,,,,,{4}1b/8b,
2/6-3[16:1],6/5-8b[16:1],5/4-1b[16:1],4/3-6[16:1],
3/2-7[16:1],2/8-4b[16:1],8/1-5b[16:1],1/6-1[16:1],
6/7-4[16:1],7/5-2b[16:1],5/4-7b[16:1],4/3-8[16:1],
3/1-5[16:1],1/7V52b[8:1],{2}A7f,
{4}4/3-8[16:1],3/1-5[16:1],1/8-4[16:1],8/6-1[16:1],
6/5,4V61[8:1],Cf,8-4b[16:1],
{32}8b,Cf,,,{16}3,3,{4}6-2b[16:1],{32}6b,Cf,,,{16}3,3,{4}4,
{16}1,7,3,5,{8}1w5b[16:1],8/2,{32}1b,Cf,{16}B6/B5/B4,,,{4}7/3,
1-6[16:1],1/8-4[16:1],8/3-8[16:1],6w2[16:1],
,3w7[16:1],,1/5,
{8}8-4[16:1],7,8/2,3,1-3[16:1],8,1/7v1[4:1],6,
{4}7/1>2-4-6<7[16:3],Cf,{8}2-6b[16:1],8-4b[16:1],2b,8b,
{4}1>3[16:1],{8}8/1-5[16:1],7,8/1>3[16:1],6,{4}8/1,
1/6<8[16:1],{8}5/6-2[16:1],4,5/6<8[16:1],3,{4}5/6,
1>5[16:3],{8}5,7,{4}1,1/8-2[16:1]*v3[16:1],
8b-6[16:1]*v5[16:1],8bs4[16:5]*z4[16:5],,,3bh[8:1]/7bh[8:1],
6bh[8:1]/2bh[8:1],{8}7/3,2,6/2,7,
{16}7,4,6,3,5,2,{8}4,{16}2,5,3,6,4,7,{8}5,
{16}7,5,6,4,1,3,8,4,6,8,5,1,6p4[16:5],2,7,3,
{2}6,{4}Cfh[4:1],E7/E6/E4/E3,
{16}4,5,4,5,4,5,4,5,4,5,4,5,4,5,4,5,
3,6,3,6,3,6,3,6,3,6,3,6,3,6,3,6,
{24}2,3,4,5/6,,,7,6,5,4/3,{96},,,,,,,,{32}2,3,4,5,6,5,4,3,2-6[1.5##0.0938],3,4,5,6,7,8,1s5[1.1719##0.0938],
{4}6/2h[2:1],,,2b/1b,
{8}7x/4x,6,5/4,{16}3,4,2,8,2,6,2,4,{8}2,
{16}3,5,{8}1,{16}2/6>1[4:1],,,1,{2}1>6[4:1],
{8}2x,3,5/4,{16}6,4,6,8,7,1,8-5[16:1],2,{8}1,
{4}8/5-2[16:1],5/2-7[16:1],2/7-4[16:1],7/4,
{8}5x/2x,3,4/5,{16}6,5,7,1,7,3,7,5,{8}7,
{16}6,4,{8}8,{16}7/3<8[4:1],,,8,{2}8<3[4:1],
{8}7x,{16}6-8[16:1],5,{4}6,{8}2,{16}3-1[16:1],4,{4}3,
{16}7-5[16:1],8,7-1[16:1],6,{8}7x-3[16:1],7x,{4}7x,6b/2b,
{8}3x/4x,6/5,7/8,{16}1,8,2,4,2,6,2,8,{8}2,
{16}1,7,{8}3,{16}4/6<3[4:1],,,3,{2}3>6[4:1],
{8}5x,3/4,2/1,{16}8,1,7,5,7,3,7-3[16:1],1,{8}7,
{4}7/3-6[16:1],3/6-2[16:1],6/2-7[16:1],2/7,
{8}5x/6x,1/8,4/3,{16}2,1,4,5,8,7,4,5,{8}3,
{16}5,4,{8}6,{16}7/3>7[4:1],,,7,{2}7<3[4:1],
{8}7x,8/1,2/3,{16}4,3,7,1,5,4,8qq4[2:1]*pp4[2:1],2,{8}6,
,,,,,,,,{1}5-1[4:11]/4-8[4:11],
,,,8-5b[4:11]/1-4b[4:11],
{2},,,,,,3-8[2:1],
8-4[2:1],
4<7[2:1],{8}7q4[2:1],,,5,
{2}4>1[2:1],1-5[2:1],
5<8[2:1],{16}8-4[2:1],,,5,,,{8}5,
{2}4>8[2:1],8<4[2:1],
4-8b[2:1],C,
{24}4b,5,4,5,4,5,{16}3b,6,3,6,{12}2b,7,2,7,2,1b/8b,
,,,,,,{2}E8h[12:1]/B7h[12:1]/E7h[12:1]/E3h[12:1]/B3h[12:1]/E4h[12:1],
{4}8/1-5[16:1],1/5-7b[16:1],5/4-2b[16:1],4/8-4[16:1],
8/1-5[16:1],1/5-7b[16:1],5/4-2b[16:1],4/8-6[16:1],
2/8-5[16:1],8/4-2b[12:1],6/4-1b[12:1],4/7-1[16:1],
7/5-1[16:1],5/1>2>3<4<5<6<7>8>1[4:1],{2}Cf,
{4}7-4[16:1]*-2[16:1],7,3-8[16:1]*-6[16:1],3,
7p3[12:1]/3p7[12:1],7>3[12:1]/3<7[12:1],3/7,7b/3b,
{8}8/1-4[16:9],{16}2,7,{8}3,{16}2,2,8-5[16:1],2,7,1,{4}8,
{16}4-7[16:1],5,2,2,4-1[16:1],3,6,6,{4}4,Cf,
7<6-4[16:1]*v1>2-4[16:9],7,7<6-4[16:1],7,
2>3-5[16:1]*v8<7-5[16:9],2,2>3-5[16:1],2,
{8}5-1[16:1],6,5/3,2,4-2[16:1],5,4/6v4[4:1],7,
{4}6/4>3-1-7<6[16:3],Cf,{8}3-7b[16:1],5-1b[16:1],3b,5b,
{4}4>2[16:1],{8}5/4-1[16:1],6,5/4-8[16:1],7,{4}4/5,
8<6[16:1],{8}1/8-5[16:1],2,1/8-4[16:1],3,{4}8/1,
4>8[16:3],{8}8,6,{4}4,5-3[16:1]*-2[16:1],
5-7[16:1]*-8[16:1],5-3b[16:1]*v2b[16:1],5b-7b[16:1]*v8b[16:1],5b,
{32}7b/8b,6,5,4,{8}2,8/7,{16}1,1,4,3,8,1,5-8[16:1],4,6,3,
5b,4,7,7,4,5,2,2,4,5,6,7,8,1/7,2/6,3/5,
{8}4b-8b[16:1],2/6,4,{16}5,5,8,6,4,5,2-7[16:1],8,3,6,
{4}7/2b-8[16:1],8/2b-4[16:1],4/2b-5[16:1],5/2b,
{32}2b/1b,3,4,5,{8}7,1/2,{16}8,8,5,6,1,8,4-1[16:1],5,3,6,
4b,5,2,2,5,4,7,7,2,8,3,5,1-4[16:1],7,4,6,
{4}1-6[16:1]/5-2[16:1],1>5[16:1]/5<1[16:1],1p5[16:1]/5p1[16:1],5/1,
1-5[16:1],1/7V52b[8:1],{2}A7f,
{16}3b,4,2,6,5,7,3,4,2,6,5,7,4,5,3,6,
2b,1,3,7,8,6,2,1,3,7,8,6,1,8,2,7,
3b,4,2,7,8,6,3,4,2,7,8,6,2,7,3,6,
4,4,5,3,5,5,4,6,3,3,4,2,6,6,5,7,
3,4,3,4,1,8,1,8,1,2,3,4,8,7,6,5,
1,8,1,8,5,6,5,6,5,4,3,2,5,6,7,8,
1,2,3,4,5,6,7,8,{32}1,2,3,4,5,6,7,8,1-5b[16:1],2,3,4,5,6,7,8,
{4}1b>4b[16:1]*<6b[16:1],1bs5b[16:5]*z5b[16:5],,,{1}6>3[16:45],
B6,
B8,
B4,
B1,
B8,
{32}B1,E1/E2,D1/D2,A8/A2,D8/D3,A7/A3,E7/E4,E6/E5,{4}A5,
E
