&title=渋谷アクアリウム
&artist=JELEE
&first=0
&des=橘 野乃花
&lv_5=13+
&inote_5=(140)
{1},
{8}7<4[8:1],,7,2-6[8:1],,5<4[8:3]/2,,5,
,,1,2q5[8:3],,2/6,7,8,
{8}1<6[8:1],,1,3-8[16:2],,7qq4[8:3]/3,,7,
,3,2,1v3[8:1],,{16}5,6,7,,8x/4x,,
{8}3>8[8:1],2,3/7-4[8:1],6,2/7,1>7[8:2],,1/5h[8:2],
,,8,1>5[16:4],,1/6,7,8,
{8}1<6[8:1],,14,3-8[8:1],,3/5-1b[8:1],,Cf/1b>3p6[8:3]*<7q4b[8:3],
,,,,,3h[8:1],5h[8:1],1,
{8}
3>8[8:1],,7,5pp4[16:5],,8,,2,
{16}3<6[8:1],,{16},,7p2[8:1]/3,,,,3h[8:1],,,,1,,8,,
{8}7<4[16:2],,3,2qq5[8:3],,,5,6,
7V53[16:3],,2,,1>5[16:3],,6,,
7pp1[16:3],,5,3qq4[16:5],,4,,{16}6h[8:2],,,,5,7,4h[8:1],,7,4,6,,53,,2-6[8:1],,1,,{8}
2/4<8[8:2],,,1,2-6[8:1],,24,5xh[8:1],
{16}8b,1,2,3,6,7,8,1,5,4,3,2,8,7,6,5,
{16}42,,{16}2,1,3,,{8}8<3[8:2],,3V57[16:3],,8,
{16}2,,2,1,3pp4[16:5],,3V14[16:3],,3,,,,,,,,
{8}75,{16}6,4,,2,{8}4,8>3[8:1],{16},,{8}8/6-1[8:1],5,
46,{16}3,3,,6,5,,{8}8pp2[8:1],2<5[8:2],8,4>2[16:1]*pp8[8:4],,4,,,1,,2,3h[8:1],
{8}4<7[8:1],{16}5,2,4,,1>4[8:1],,,,17,,8v5[8:1],,,,
{8}
8/3qq8[8:5],,4,,{16}5,,,6,,,7h[8:8],,
1>4[8:1],,,,,,,,5>2[8:1],,,,,,,,
{16}6h[8:1]/1h[8:1],,,,2v5[8:1]/
7-1[8:1],,38,,A7/2pp5[4:2],,,,,,,,8h[8:1],,,8h[8:1],,,7-5[16:1]/4-8[16:1],,74,,,,,,,,
2h[8:1]/5h[8:1],,,,6v1[8:1]/
3-5[8:1],,74,,A3/6pp1[4:2],,,,,,,,4h[8:1],,,4h[8:1],,,3-1[16:1]/8-4[16:1],,3/8,,,,,,,,
{16}1,4,3,6,4,7,5,8,
5,4,3,2,15,6,7,8,
1xV35[16:3]/5,4,3,2,5xV31[8:2]/1,6,7,8,1x>5[16:3],,7,,7h[8:1],,,,
{16}8,5,6,3,5,2,4,1,
4,5,6,7,84,3,2,1,
8xV64[16:3]/4,5,6,7,4xV68[8:2]/8,3,2,1,8x<4[16:3],,2,,3,,,,
2-5[8:1],,1,,2/6-3[8:1],,7,,36,,2h[8:1],,1,3x/8x,,7,
6x-4[16:1]/4b>2b[16:1],,,,4-8[8:1],,,,4/2>5[8:1],,1x,,2,6x,,,
2/8b,,5,6h[16:2],,3,4,2,
1/6b,,8,7h[16:2],,2,1,3,
4/7b,,3,2/4b,,6,7q5[8:2]/5bq3b[8:2],,,,,,,,,,
{16}6V82[8:2],,4,,2<5[8:2],,,,5p4[8:2],,3,,1-7[16:1],,,,1>7[4:1],,,,1/7<1b[4:1],,,,{8},8,7,6,
{16}3V17[8:2],,5,,7>4[8:2],,,,4q5[8:2],,6,,8-2[16:1],,,,8<2[4:1],,,,8/2>8b[4:1],,,,{8},,3h[8:1],1,
{16}57,,4,5,3,,{24}4x,5x,6x,{16}7xqq4[8:3],,,4,,,3x,2x,1x<6[8:1],,,,1,,5-1[8:1],,,,53,,,,4h[8:1],,
2-5[8:1],,1,,82,,7qq4[8:3],,,,4,,3,,2,,1>4[8:1],,,,1,,1qq6[8:3],,,,5,,4,,3,,
{16}2>5[8:1],,1,,2/6pp8[8:1],,,,6>3[8:1],,,,1-6[8:1],,,,2<7[8:1]*>5[8:1]/1,,,,2,,,,
6>3[8:1]*<1[8:1],,,,6,,,,1<6[8:1],,2,,3-8[8:1]/1,,,,5qq2[8:2]*v8[8:1]/3,,,,5,,,,
7b-3[16:1],,,2bx>5b[16:1],,,1bx,,6b-1[16:1],,,3b>8b[16:1],,,7bx,,
5pp1[8:2],,,,,,2,3,4h[16:3],,,8,,4,3,2,
{4}1b/5-1[8:1],5b/4<7[8:1],4b/2w6[8:1],2b,
{16}7,5,6,3h[8:1],,5,6,7,
2,1,3,7h[8:1],,5,4,3,
6,8,7,2h[8:1],,1,8,7,
3,5,4,7h[8:1],,8,1,2,
6,4,8,5h[8:1],,1x,84,73,
2x,6,8,4h[8:1],,1x,25,36,
7xb-3[16:1]*-3[16:1],,,7/2b>5b[16:1],,,2x/8bx,,6b-1[16:1]*-1[16:1],,,6/3b>8b[16:1],,,4x/3bx,,
6xbpp4b[8:4],,,,{24},,,,1,2,{16}3qq8[8:5]*qq8[8:5],,,,{24},,,,5,6,
{16}7<4[8:1],,,,,,,,1-4[8:1],,,,1/6<1[8:1],,,,
3xbqq5b[8:4],,,,{24},,,,8,7,{16}6pp1[8:5]*pp1[8:5],,,,{24},,,,4,3,
{16}2>5[8:1],,,,,,,,7h[16:3],,,5h[16:3],,,8h[8:1],,
6>3[8:1],,,,6/8-4[8:1],,,,8/2<7[8:1],,,,2/5-1[8:1],,,,5/3<6[8:1]*>8[8:1],,,,3,,,,
7<4[8:1]/3v8[8:1],,1,,73,,,,
2,4,3,8,5,6,1,8,3,5,4,7,8,6,2,4,
3bqq4[8:9]*qq4[8:9],,,,,,,,,,,,5pp4b[16:5],,,,,,,,,,,,
{48}A7,D8,A8,D1,A1,D2,A2,D3,A3,D4,A4,D5,{16}A5/C,,,,
{8}4/7b<4[8:1],,7,2-6[8:1],,5<4[8:3]/2,,54,
,3x,2,2xq5[8:3],,2/6,7,8,
{8}1<6[8:1],,1,3-8[16:2],,7qq4[8:3]/3,,7,
,3,2,1v3[8:1],,{16}15,6,7,,8x/4x,,
{8}6<1[8:1],7,6/2-5[8:1],3,7/2,1qq5[8:2],,1/3h[8:2],
,,2,8>4[16:4],,8/6,7,8,
{8}1<6[8:1],,14,3-8[8:1],,3/5w1[8:1],,5bpp5b[8:3]*bqq5[8:3]/C,,,,,,3,2,1>4[8:1],,
5,6,7<4[8:1],,2,1,8>3[8:1],,6,7,8<5[8:1],,4,3,2>5[8:1],,5,6,7<4[8:1],,3,2h[64:1],1h[64:1],
E
