&title=god-free
&artist=zris
&first=-1.209999
&lv_5=13+
&des_5=flawi
&inote_5=
(139){4},,,,,,,,6x/1x>5[4:1],
{24}5x,6x,7x,8xh[8:1],,,,,,{8}7h[8:1]/5h[8:1],,4/2h[2:1],
,8,6,4,,4-8[8:1],3,2,
{4}1x<5[4:1],{24}5x,4x,3x,2xh[8:1],,,,,,{8}7h[8:1]/4h[8:1],,2/5,
{16}3,4,3,5,4,5,3,4,2,5,4,6,1,7,2,6,
4x-1[8:1],,,8,{8}4,7,6h[8:1],8>3[8:1],{16}7,7,{8}8,
{16}5x-8[8:1],,,1,{8}5,2,3h[8:1],1<6[8:1],{16}2,2,{8}1,
{16}4x,4h[16:3],,6x,{8}6h[16:3],{16}8x,8h[16:3],,2x,{8}2h[8:1],{16}3,1,3-8[8:1],1,
,,{8}3/7x-4[8:1],,7x/1xw5b[8:1],,1bx,,,7/5,
{16}8>6[8:3],6,{8}8,5,,1-5[8:1],{4}1,
{8}7h[8:1],6h[8:1],8h[8:1],5h[8:3],,1x,{4}1x,
{8}5/2,{16}3,4,{4}3V15[4:1],3/7,{8}8,8<5[8:1],
,8x/4x>1[8:1],,4x/7x-4[8:1]*-2[8:1],,7x,,,2/4,
{16}1<3[8:3],3,{8}1,4,,8-4[8:1],{4}8,
{8}2h[8:1],3h[8:1],1h[8:1],4h[8:3],,8x,{4}8x,
{8}4/7,{16}6,5,{4}6<8-4[4:1],6/2,{8}1,1>4[8:1],
,1x/5x<8[8:1],,5x/1w5b[8:1],,1b,{16},,6,5,
{4}8<4[8:3],{16}E5,,,E3,,,{8}1,{16},,3,4,
{4}1>5[8:3],{16}E5,,,E7,,,{8}8,{16}4,,,6h[16:3],
,,{8}5h[8:1],8h[8:1],1h[8:1],{16}2>5[16:1],,,8-4[16:1],,,{8}6x>7[8:5],
,,E2,E3,E4,E5,6x,5,
{4}4x/7h[4:1],{8}1>4[8:1],{16}8,1,,,{8}5,6,7p3[8:1],
,3,2,1q5[8:1],,5,6,7,
{4}7h[8:1]/5h[8:1],4h[8:1]/2h[8:1],6h[8:1]/3h[8:1],{8}7/2,8x/1x-5[8:1],
,1,7-3[8:1],4,{4}7,Cf,
{8}5/2,{16}1pp4[8:3],4,1,4,{8}1,{4}6x<1[8:1],{8}6,3,
4h[8:1],8h[8:1],3h[8:1],7>5[4:1],2,7,,1x,
7/4,3,5/2-4[8:1],6,2/7-1[8:1],8,7/3,4qq3<1[2:1],
8,7,{4}6h[8:3],{8},,5/2,4/3-8[8:1],
2x,3/6-2[8:1],5,6x/1x-5[8:1],8,1xw5[8:1],,1x<6[8:1]*>4[8:1],
,1xw5b[8:1],,1bx,,7x/E4/B3,{4}5x/E1/B1,
{8}2x/5x,{16}3,4,{8}3,{16}2/E1,E8,{8}E7,5/1,7/3,6x/4x-8[8:1],
,4/7-5[8:1],6,7/2-6[8:1],1-5[8:1],2<7[8:1],1,2,
4x-8[8:1],{16}2,2,{8}4,1x>4[8:1],{16}6,6,{8}1,7x,5x/1x,
{16},,3,4,{8}2h[8:1],{16}7,8,{8}6h[8:1],1,E8/B8/B1/E6/C/E2/E3/E4/A1,E1/E5/Cf/A8/E2/B7/B3/E6/A4,
{16},,5>1[16:3],6,{8}5,5,{16},,4<8[16:3],3,{8}4,4,
{16},,1>6[16:3],1,{8}8,1,{16},,8pp6>8b[8:5],8,{8}1,8b,
,,,,{4}Cf,{8}2/5,7/4,
6/3,8x-4[8:1]/1x-5[8:1],,8x/1x,,7b/2b,{4}7b/2b,
{8}4x/6x<1[8:1],{16}3,3,{8}6>4b[8:1],2pp5[8:3],6,2,{4}7,
{8}6x>2[16:3],7,8,1h[4:1],,3x,{4}7x/5x,
{8}5x/3x>8[8:1],{16}6,6,{8}3<5b[8:1],7qq4[8:3],3,7,2,3x-8[8:1]*-1[8:1],
,3x-6[8:1]*-5[8:1],,3xw7b[8:1],,3b,{16},,5,5,
{8}1h[8:1],{16}4,3,5,4,{8}6h[8:1],{16}1,7,2,8h[16:3],{8}3x,3x,
7h[8:1],{16}5,6,{8}4h[8:1],{16}6,5,{8}7h[8:1],{16}8,1,2,3,4,5,
{8}6x/7h[8:1],{16}5,6,4,5,{8}3h[8:1],{16}8,2,7,1h[16:3],{8}6x,6x,
2h[8:1],{16}4,3,{8}5h[8:1],{16}3,4,2,4,3,5,1,6,2,7,
{8}3V51-4[8:5],6h[16:1],,7,8,7xh[16:1],{16},7xh[16:1],,,{8}6V48-5[8:5],
3h[16:1],,3,2,2xh[16:1],{16},2xh[16:1],,,{8}1V36V41b[2:1],
7,7,8,8h[16:1],8h[16:1],7h[16:1],7h[16:1],
1b/6,{16}6,5,{8}4,7b/3,{16}3,4,{8}5,{16}6,4,7,3,
{8}2x/8x<3[4:1],{16}E2,E3,E4,E5,E6,E7,{8}E8,1/5,2/6,7/3,
8-6[8:1],4-2[8:1],8x>7b[4:1],4,,Cf,,1x,
8/7-4[8:1],1,7/2-6[8:1],1,2/5-8[8:1],4,5/3,1,
2<7[8:1],6>3[8:1],2x,6x,{4}1w5b[8:1],1x,
{8}7x/1x>6[4:1],{16}E8,E7,E6,E5,E4,E3,{8}E2,8/4,7/3,2/6,
1x/5x<8[8:1],{16}2,2,{8}5,2x>5[8:1],{16}1,1,{8}2,{4}Cf,
{8}7x/4x,{16}6,5,{8}6,{16}7/E1,E2,{8}E3,4/8,2/6,3x/5x-1[8:1],
,5/2-4[8:1],3,2/7-3[8:1],8-4[8:1],7>2[8:1],8,7,
5x-1[8:1],{16}7,7,{8}5,8x<5[8:1],{16}3,3,{8}8,2x,4x/8x,
{16},,6,5,{8}7h[8:1],{16}2,1,{8}3h[8:1],8,E8/B8/B1/E6/C/E2/E3/E4/A1,E1/E5/Cf/A8/E2/B7/B3/E6/A4,
{16},,4-8[8:1],6,{8}2h[8:1],4,1,{16}5-1[8:1],3,{8}7h[8:1],5,
8,{16}7<4[8:1],3,{8}8,7/3,1,{16}2pp2[4:1],6,{8}1,7/2<2b[8:3],
{2}8,{32}E2,E1,E8,E7,E6,E5,E4,E3,{8}E2f/A1/D2/A2,7,
8x/2x,6x-2[8:1]/4x-8[8:1],,6x/4x,,5x/1x,{4}3x/7x,
{8}4x/7x>2[8:1],{16}5qq1[2:1],5,{8}7,5x,,8,{4}6h[8:1],
{8}5/2,3/6,4/7,5/8-4[8:1],,3x,{4}2x,
{8}1x/5x,{16}3,4,{8}2h[8:3],8,6,4-7[8:1],2,4/1-5[8:1],
,1x<6[8:1]*>4[8:1],,1xw5b[8:1],,1bx,,,5x/2x<7[8:1],
{16}4pp8[2:1],4,{8}2,4x,,1,{4}3h[8:1],
{8}4x/7x,6/3,5/2,4/1-5[8:1],,6x,{4}7x,
{8}8x/4x,{16}6,5,{8}7h[8:3],1,3,5-2[8:1],7,5x/8x<5[8:1]*>3[8:1],
,8w4b[8:1],,8b,
E
