&title=星降る夜と一輪の花
&artist=seatrus
&first=0
&des=MWHxmj
&wholebpm=177
&des_5=MWHxmj
&lv_5=14
&inote_5=(177){1}
{1},,
{2}5h[4:7],{16},,1x,2x,3x,,,,
{2},{16},,1x,8x,7x,,,,
{2}3h[4:7],{16},,7x,6x,5x,,,,
{2},{16},,7x,8x,1x,,,,
{8}7h[8:3],6,5,4,3h[8:3],2,1,8,
{8}6h[8:3],5,4,3,2h[8:3],1,8,7,
{8}5h[8:3],4,3,2,1h[8:3],8,7,6,
{8}5,4,3,4,6,5,3,4,
{2}8h[4:7],{16},,4x,3x,2x,,,,
{2},{16},,4x,5x,6x,,,,
{2}2h[4:7],{16},,6x,7x,8x,,,,
{2},{16},,6x,5x,4x,,,,
{16}5,,4,,3,,2,,1,,8/2x,3x,7/4x,,6,,
{8}5,4,3,2,1,8,7,6,
{1}C,
{12}E1,E2,E3,E5,E6,E7,B8,B1,B2,B4,B5,B6,
{8}8/4,8,7/4,7,6/3,6,5/2,5,
{8}1/4,1,2x/5,2x,3/6,3x,4x/7,4x,
{8}8/5,8,7/B4,7x,6/3,6,5/B2,5,
{8}1/5,1,2/B5,2,3/6,3,4/B7,4,
{8}8/4,8/4,7/3,7/3,6/2,6/2,5/1,5/1,
{16}6,2,6,2,7,3,7,3,
{32}8x,7x,6x,5x,4x,3x,2x,1x,8x,7x,6x,5x,4x,3x,2x,1x,
{2}8h[4:5],C,,{16}4,,5,,3,6,1,,
{2}8b<1[2:3],{16},,2,3,4,,,,
{2},{16},,7,6,5,,,,
{2}1b>8[2:3],{16},,7,6,5,,,,
{2},{16},,2,3,4,,,,
{8}4-2[8:1],5,4,6,1-3[8:1],7,1,6,
{8}5-3[8:1],6,5,7,8-2[8:1],6,8,5,
{8}4>2[8:1],6,4,8,1>3[8:1],7,1,5,
{8}4-2[8:1],5-7[8:1],4,5,{16}1,,8,,3,6,4,,
{2}5b<4[2:3],{16},,3,2,1,,,,
{2},{16},,8,7,6,,,,
{2}4b>5[2:3],{16},,6,7,8,,,,
{2},{16},,1,2,3,,,,
{8}5-7[8:1],4,5,3,{16}8-6[8:1],,2,B2,8/C,,3,,
{8}4-6[8:1],3,4,2,1-7[8:1],3,1,4,
{8}5<7[8:1],3,5,1,8,2,8,3h[4:1]/6h[4:1],
{24},,,,,,1h[4:1]/8h[4:1],,,,,,,B2/B7,E4/E6,4hx[4:1]/5hx[4:1],,,,,,,,,
{32}8b/4h[4:1],,,,,,,,,,,,,E4,B3,B2,
{32}6/1hx[4:1],,,,,,6,,,,,,6,B1,C,B5,
{32}7/5hx[4:1],,,,,,7,,,,,,7,E5,B4,B3,
{32}8/2hx[4:1],,,,,,8,,,,,,8,B2,C1,B5,
{4}5hx[8:1],{24}8,7,6,2,3,4,{12}6x,5,4,2,1,8,
{12}7x,6,5,3,2,1,B6,B5,B4,B2,B1,B8,
{32}1b/5h[4:1],,,,,,,,,,,,,E6,B6,B7,
{32}3/8hx[4:1],,,,,,3,,,,,,3,B8,C,B4,
{32}2/4hx[4:1],,,,,,2,,,,,,2,E5,B5,B6,
{32}1/7hx[4:1],,,,,,1,,,,,,1,B7,C8,B4,
{4}4hx[8:1],{24}1,2,3,7,6,5,{12}3x,4,5,7,8,1,
{12}2x,3,4,6,7,8,B3,B4,B5,B7,B8,B1,
{32}7b/3h[4:1],,,,,,,,,,,,,E3,B2,B1,
{32}5/8hx[4:1],,,,,,5,,,,,,5,B8,C,B4,
{32}7/4hx[4:1],,,,,,7,,,,,,7,E4,B3,B2,
{32}6/1hx[4:1],,,,,,6,,,,,,6,B1,C8,B4,
{4}4hx[8:1],{24}7,6,5,1,2,3,{12}8x,7,6,5,4,3,
{12}7x,6,5,4,3,2,B6,B5,B4,B3,B2,B1,
{32}2b/6h[4:1],,,,,,,,,,,,,E7,B7,B8,
{32}4/1hx[4:1],,,,,,,,,,,,,B1,C,B5,
{32}2/5hx[4:1],,,,,,,,2,,,,,E6,B6,B7,
{32}3/8hx[4:1],,,,,,,,3,,,,,B8,C1f,B4,
{1}4x,,Ch[4:7],,
{2}B7,E1,B6,E1,E6,,,,
{2}B2,E1,B3,E1,B4/E4,,Ch[4:3],,
{8}B8/2,B7,B6,B5,B4/8,B3,B2,B1,
{8}B8/3,B7,B6,B5,B4/8,B3,B2,B1,
{8}B8/4,B7,B6,B5,B4,B3,B2,B1,
{8}B8,B7,B6,B5,B4,B3,B2,B1,
{8}B8/2,B7,B6,B5,B4/8,B3,B2,B1,
{8}B8/3,B7,B6,B5,B4/8,B3,B2,B1,
{8}B8/4,B7,B6,B5,B4,B3,B2,B1,
{8}B8,B6,B4,B2,{16}5,,3,,7,2,6,,
{8}1/5,1,2/5,2,3/6,3,4/7,4,
{8}8/5,8,7x/4,7x,6/3,6x,5x/2,5x,
{8}1/4,1,2/B6,2x,3/5,3,4/B7,4,
{8}8/4,8,7/B3,7,6/4,6,5/B2,5,
{8}1b/5b,1/5,2b/6b,2/6,3b/7b,3/7,4b/8b,4/8,
{16}3b,7,3,7,2b,6,2,6,
{32}1,2,3,4,5,6,7,8,1,2,3,4,5,6,7,8,
{2}1h[4:5],C,,{16}5,,4,,6,3,8,,
{16}1b,,5-7[8:1],4,6,4,5,,3,8,1>4[8:1],7,2,8,1b<6[8:1],,
{16},,1bw5[8:1],,,,1b,,,,7,1,6,2,5,3,
{16}6,5,6,B5,C,,3,4,3,B4,C,,7,5,6-1[8:1],3,
{16}6,4,6,,,,3,5,3,B2,E1,,8V64[4:1],3,6V42[4:1],2,
{16}8,,4,,2,,1,,,,1-3[8:1],,3-5[8:1],,5,,
{16}7,,8,,,,7,,2,4,1,6,3,8,5,7,
{16}2,1,2h[8:3],,,,,,,,5,,1,,6,,
{16}2x,3,4,5,3x,4,5,6,4x,5,6,7,5x,6,7,8,
{16}1b,,4-2[8:1],5,3,5,4,,6,1,8<5[8:1],2,7,1,8b>3[8:1],,
{16},,8bw4[8:1],,,,8b,,,,2,8,3,7,4,6,
{16}3,,6,,4,2,7,3,6,1,8-4[8:1],2,7,3,8b/2b-6[8:1],Cf,
{16},,2b/7b-3[8:1],Cf,,,7b/1b,Cf/B7/B3,,,2,,2,,3,,
{8}4/5-8[8:1],4,5,4,3/7-2[8:1],3,7,3,
{8}6/1-4[8:1],6,1,6,8/3-6[8:1],8,3,8,
{8}1/7-4[8:1],1,7,2,6/3-8[8:1],6,3,7,
{8}4/6-1[8:1],4,6,3,7/2-5[8:1],7,2,8,
{16}3h[8:1]/7h[8:1],,2/6,1/5,
{8}8x/4h[2:3],8,1,1,2,2,5,5,7,7,8,8,2,2,
{16}5b,1,B5,B1,6b,2,B6,B2,7b,3,B7,B3,8b,4,B8,B4,
{16}1b,5,8,4,7b,3,6,2,5b,1,7,3,5,,,,
{16}1>7[4:3],,,,,,7,6,5<3[4:3],,,,,,3,2,
{16}1,,,,,,8,7,6,,,,,,3,2,
{16}1/8x,7,6,5,4x/8x,1,2,3,
{16}4x/8x,7,6,5,4x/8x,1,2,3,
{16}4x/1x,8,7,6,5x/1x,2,3,4,
{16}5x/1x,8,7,6,5x/1x,2,3,4,
{16}5x/8<2[4:3],,,,,,2,3,4>6[4:3],,,,,,6,7,
{16}8,,,,,,1,2,3,,,,,,6,7,
{16}8/1x,2,3,4,5x/1x,8,7,6,
{16}5x/1x,2,3,4,5x/1x,8,7,6,
{16}5x/8x,1,2,3,4x/8x-3[8:1],7,6,5,
{32}4x/8-5[8:1],E5,B5,E7,,,,,4,E4,B3,E2,,,,,
{16}4>6[4:3],,,,,,6,7,8<2[4:3],,,,,,2,3,
{16}4,,,,,,5,6,7,,,,,,2,3,
{16}4/8x,7,6,5,4x/B8,B1,B2,B3,
{16}B4/B8,B7,B6,B5,B4/8x,1,2,3,
{16}4x/1x,8,7,6,5x/B1,B2,B3,B4,
{16}B5/B1,B8,B7,B6,B5/1x,2,3,4,
{8}7/5x,5,8/4,4,2/4x,4,1/5,5,
{16}1,8,1,8,2,7,2,7,3,6,3,6,4,5,4,5,
{1}Ch[2:3],,
{2}B2,E1,B3,E1,E4,,,,
{2}B7,E1,B6,E1,
{32}E6,B5,,,,,,,{4},,,
{1},,
E
