&title=イシュカン·コミュニケーション
&artist=ちょろゴンず
&first=-0.35
&des=パラダイス パラダイス
&des_5=
&lv_5=13
&inote_5=(108){4},{8},,4/7h[8:1],5,6/3h[8:1],5,
{12}2-4[12:1],{24}2,4,,,{8}2,5,5/2h[8:1],4,3/6h[8:1],4,
{12}7-5[12:1],{24}7,5,,,{8}7,4,5/7h[12:1],4,6/3h[12:1],5,
{12}2-4[12:1],{24}2,5,,,{8}2/6,7,5/3h[12:1],6,4/7h[12:1],5,
{12}6,{24}6,4,,4,{12}5,{24}5,3b,,,2/4,,,,,8,{12}1,7,{24},6/5,
,,{12}5/4,{24},4/3,,,2,1,{48},,,,E3/8qq8[4:1],E4,{24}E5,,,,,{4}8/1,
{8}2>5[8:1],1,{4}2/8,{8}8-5[8:1]*-3[8:1],7/1,{4}8,
{8}6/4,7,5/3,2,{48}E7/1pp1[4:1],E6,{24}E5,,,,,{4}8/1,
{8}7<4[8:1],8,{4}7/1,{8}1p5[8:1]*pp3[8:1],2/8,{4}1,
{8}4/2,3,5/7,6,{12}5/3qq4[4:1],{24}2,5,,,{4}6h[8:1],
{12}7pp6[4:1],{24}8,5,,,{4}4h[8:1],{12}3V51[6:1],{24}2,4,,,{8}3/6,7,
8w4[12:1],7/1,{4}Cf,{12}6pp4[4:1],{24}7,4,,,{8}3,2
,
{12}1-5[8:1],{24}2,4,,,{8}1<6[8:1],7,1pp5[4:1],2,1/5,6,
{12}8h[12:1],{24}4,7h[12:1],,3,{12}6h[12:1],{24}2,5<2qq3b[4:3],{48},,,,7h[4:3]/D3f,A3,D4,A4,{12}D5,,,,,,,,,,,6pp4[4:1],
{24},4,,,{8}6,3,
2v4[8:1]*<6[8:1],4,{4}2,{12}6pp3[4:1],{24},4,,,{8}6,3,
2<7[8:1]*>5[8:1],2,{4}2,{12}6pp2[4:1],{24},4,,,{8}6,3,
4-1[8:1],3,4/8,7,{2}6qq4[8:1]/8>4[8:1],
{4}5w1[12:1],Cf,{8}2q4[4:1],4,2/5,6,
7pp6[4:1],5,7/4,3,2q3[4:1],4,2/5,6,
{12}7,{24}4,6,,,{4}8/1>8qq4b[4:3],{2}1b/2bh[2:1],
{4},3bw7[12:1]*w7[12:1],{2}A3/B3/Cf/B7/A7,
{4}2b/6bh[4:1],{32}3b,4,5,6,7,8,1,2,{8}6b/3h[4:1],4,2q6[8:1],1,
{4}2/7h[4:1],{8}8v3[8:1],1,{4}8/2h[4:1],{8}1<5[8:1],8,
{4}1/7h[4:1],{8}4>8[8:1],3,{4}4/2h[4:1],{8}8p4[8:1],7,
{4}8/6h[8:1],{8}6/3,7,{32}3/8h[16:1],4,{16}5,{32},,7/2h[16:1],6,{8}5,{32}3/7h[16:1],4,5,6,
7,8,1,2,{8}7/3,{4}Cf/2>5[8:1],2/6h[4:1],{8}7V53[8:1],1/8,
{4}7/2h[4:1],{8}1q5[8:1],7/8,{4}1/6h[4:1],{8}8V24[8:1],2/7,
{4}8/3h[4:1],{8}5q1[8:1],7/4,{4}5/8h[4:1],{8}1V75[8:1],3,
{4}1/4h[8:1],{8}5/3,2,{32}6/1h[16:1],5,{16}4,{32},,2/7h[16:1],3,{8}4,{32}7/2h[16:1],6,5,4,
3,2,1,8,{8}3/7,{4}5/Cf,{12}6,{24}5,7,,,{12}2/5,{24}3,4,,2,
,,8,1,,,{12}7/8,{24}6,5,,,{12}3,{24}4,2,,8/1,,,2/7,{48},,,,6x/3h[24:1],5x,
{12}4x,{24}2,1,,,{12}8/7,{24}6,4,,,{12}3pp2[4:1],{24}3,5,,5,{8}3,8,
{12}7pp6[4:1],{24}7,1,,1,{8}7,3,{12}2V46[8:1],{24}2,6,,6,{8}2,7h[8:1],
{32}8xqq8b[8:1]*pp8b[8:1],1x,2x,3x,,,,,{4}Cf,{12}7,{24}7,5,,5,{12}6,{24}6,4,,4,
{12}5,{24}5,2>5[8:1],,2,{8}4h[12:1],2,{12}6,{24}6,8,,8,{12}7,{24}7,1,,1,
{12}8,{24}8,3V51[8:1],,3,{8}7h[12:1],3,{12}6,{24}2,4,,3,{12}5,{24}4,6,,5,
{12}7V51[8:1],{24}7,4,,4,{8}7,3,{12}8,{24}3,1,,2,{12}8,{24}1,7,,8,
{12}6pp4[4:1],{24}6,1,,1,{8}6,3,{24}2b,,,,,2q6[8:1],{12}4,5,{24},2b/7bqq8[24:5],
,,{12}1b>4[12:1],{24},7b,,,{6}1b,{24}1bx/5bx,,,A7f/A3f/E7/D7/D8/E8/B7/B3/E3/D3/E4/D4,,,,,,{8}6b/2b,
{1}B7/B8/B1/B6/B5/B4/B3/B2/Cf,
E
