&title=Your Reality
&artist=Dan Salvato / Jillian Ashcraft
&first=-0.018
&des=JUST MONIKA
&des_5=JUST MONIKA
&lv_5=13
&inote_5=(105){4},{16},,,,,,,,,,,,,,,,,4/5h[8:33],
,,,,,,,,,,,,{8}Ch[16:5],
,,,,,,,,,,,,,,,Ch[16:3],
{16},,,,,,,,,,,,,Ch[8:3],
{1},{4},{8},{16}6,
6,{1},,,,{4},{16},{32},C,
{1},{4},,,{64},,,4,
{16},,,{128},5,
{4},,{16},,{64}Ch[32:9],{4},,,{16},,{64},,,7/3,
{1},{4},{32}2-6[16:5],
{1},{4},,{16},{64},4/5h[128:67],
,,,,,,,,,,,,,,,,{32}1,{64},,,,,,,1,{128},,,,,,,,,,,,,1,{1},,,{64},{32}4,
5,4,5,{8}3h[8:3],,4,5,4/6h[8:3],,5,
4,5/3qq4[8:3],,,5h[8:3],{16},,,,4,4,
{8}6,5/7h[4:1],,,4/6pp5[4:1],,,4,
3,4/2pp5[2:1],,,{2}6h[8:5],
{8},4h[4:1],,5,5,3h[4:1],,4,
{16}5,4,{8}6V84[4:1],,4,3,2V84[4:1],,6,
7,8h[4:1],,4,{16}E8,E7,{8}E6,{16}E2,E3,{8}E4,
C,4h[4:1],,8,{16}B7/A7,E6,,B2/A2,{8}E4,E1,
C,5h[4:1],,4,3,2h[4:1],,4,
{16}3,5,{8}4>1q5[4:1],,6,7,8>3[8:1],,4p8[8:1],
,5h[4:1],,1,{16}E2,E3,{8}E4,{16}E8,E7,{8}E6,
C,1h[4:1],,5,{16}E2/A2,B3,,E8/A7,{8}B6,E5,
{32}5,4,5,4,{8}6h[4:1],,5,{4}4/5h[4:1],{8}4,4h[8:1]/3h[8:1],
,3/2h[4:1],,4,3h[4:1]/5h[4:1],{16},,,,4v6-8[4:1],6,
{8}2,4/3h[4:1],,,1h[4:1]/2pp4p8[4:1],,,7,
{16}6,5,{8}8h[4:1]/4h[4:1],,,1h[4:1]/5h[4:1],,,6/2>5[8:1],
7,8-4[8:1],,3,2,1q5[8:1],6,7,
8,1<6[8:1],,1,{4}2v5[8:1],{8}2,{16}4,4,
{8}4,5h[4:1]/3h[4:1],,,4h[4:1]/2h[4:1],,,3/1pp5>2[8:3],
{16}4,4,{8}5,6,{16}7,8,{2}1s5[4:1],
{8},4xh,7h,{16}3h,5h,,1h,,,,,{8}6h,
{16}2h,8h,{8}4h[8:5],,,,,5x,{16}6x,6x,
4x,7,{8}3,{16}2>5[12:1],1,,1,{8}2,6,{16}7<4[12:1],8,,8,
{8}7,1,{16}2q6[12:1],8,,8,{8}2,1h[8:1],{16}3,3h[8:1],,5,
{8}5h[8:1],7,{16}8q4[12:1],6,,6,{8}8,7,{16}5>2[12:1],6,,6,
{8}5,7,{16}1-5[12:1],4,,4,{8}1,4h[8:1],{16}6,6h[8:1],,8,
{8}8h[8:1],2-4[12:1],{4}2-5[12:1],{8},8-5[12:1],{4}8-6[12:1],
{8},4>2<8<6>4>2[8:3],5,6,7,8h[8:1],,1-4[8:1],
{2}4-8-5[4:1],{16}E7/A7,E5,{8}E6,{16}E3/A2,E5,{8}E4,
C,4,,B6/B5,{16}E2/D2,B3,,E1/B8,{8}C,B3/B7,
E7/E5,6/5-1[8:1],,4/5,3,2/1-5[8:1],,8/1,
7,6/5-8[12:1],,5/4v1[12:1],,4/3,,8-5[12:1],
8-3[12:1],,,B6/C/B2,{16}A2,A3,{8}A4,{16}A8,A7,{8}A6,
C,5h[4:1],,1,{16}E3,E4,,E8,{8}E7,C,
{32}6,5,6,5,{8}7h[4:1],{16}6,6,{8}5h[4:1],4,4h[4:1],3,2h[8:1],
1,8h[32:11],{16}1,1h[16:3],,,{2}8pp7-5[4:1],
{8},4/3-8[8:1],{16}2,5,{8}3,6,8/7-3[8:1],{16}8,1,{8}7,
{16}2,2,{8}4,5-1[8:1],{16}3,7,{8}5,6h[8:1],{16},4h[8:1]/5h[8:1],{32},,,,3,
4,3,4,{8}2h[4:1],{16}3,3,{8}4h[4:1],5,5h[4:1],6,7h[8:1],
8,1h[32:11],{16}8,8h[16:3],,,{2}1qq2-4[4:1],
{8},5/6-1[8:1],{16}7,4,{8}6,3,1/2-6[8:1],{16}1,8,{8}2,
{16}7,7,{8}5,4-8[8:1],{16}6,2,{8}4,1w5[8:1],{16}2,8,{8}1,
,3-5[8:1],5-1[8:1],8x,{16}7xV15[4:1],7,,2,7,3,{8}3,
4,3x-1[8:1],1-5[8:1],6x,{16}7xV51[4:1],7,,4,7x,3,{8}3,
2x,1-7[8:1],7-3[8:1],6,{16}5V37[4:1],5,,2,5,1,{8}1,
8,1x-3[8:1],3-7[8:1],4x,{16}5xV73[4:1],5,,8,5x,1,{8}1,
2x,3/4-8[8:1],1/8-6[12:1],4/5,5,5-1[8:1],2/1-3[12:1],5/6,
7,8h[8:1],{16}4h,2h,5h,7h,,3h,,8h,2h,6h,,1h,
{8}5h,{48}8h[8:1]/2h,3,,,,,,,,1h[8:1]/6h,5,,,,,,,,8h[8:1]/3h,4,{24}5,{48},,,,,1h[8:1]/7h,6,5,,,,,,,{16}8-4[8:1],2,
{8}6,8/3h[8:1],{16},2h[8:1]/5h[8:1],{4},{128}2xh,,,3x,,,{64}4x,{128},5xs1[128:55],,,6x,,,7x,{4},,{16},,{8}8,
7,6,{4}5h[2:1],
{8},,,7,6,5,4,6,
5,4qq5-7[8:3],3,4/2h[8:1],,1h[8:1],,2h[8:1]/8-4[8:1],
,3h[8:1],,5pp4[4:1],{12}6,{24}6,5,,7,,,,{8}8h[8:1],
3,2h[8:1],5,4q8[8:1],1,2,3,4p8[8:1],
{16},,,,7,6,{8}5h[8:1],{16}1,2,{8}3h[8:1],4h[8:1],5qq3[8:1],
,5<2<5[8:7],,3h[8:1],,2h[8:1],,3h[8:1],
,4>7>4b[8:7],,6h[8:1],,7h[8:1],,6h[8:1],
,5h[8:1],,6b/4b,4h[4:1]/6h[4:1],,,3b/5b,
5h[4:1]/3h[4:1],{16},,,,2,4,{8}1h[8:1],{16}7,5,{8}8h[8:1],{16}3,4,
5,6,7,8,{32}1,2,3,4,{8}5>8[4:1],{16}6,6,{8}5,7p5[4:1],7,
1,2,3,5/4V25-1[24:11],{16}6,6,{8}7,{4}8-6[12:1],
{16}8,,,4h[16:1]/8h[16:1],,,{8}1q6[8:1],5,{16}5,6,7,8,{8}1p4[8:1],
,5,{16}3,2,{8}1-5[8:1],4,{16}5,6,{8}7,8h[8:1],
{16}4,8h[8:1],,4,{32}8,7,6,5,{8}4<1[4:1],{16}3,3,{8}4,2q4[4:1],2,
8,7,6,4/5V74-8[24:11],{16}3,3,{8}2,{4}1-3[12:1],
{16}1,,,5h[16:1]/1h[16:1],,,{8}8-5-3[16:3],4,{16}4,3,2,1,{8}8-2-5[16:3],
,5,{16}6,7,{8}8-4[8:1],5,{16}4,3,2,1,{8}8V24[8:1],
4v1[12:1],,,7-3[8:1],{16}5,4,3,2,{4}1w5b[4:1],
{8},,,E8/B7,{16}A6/D6,E2/B2,,A3/D4,{4}5pp5-3[4:1],
{8}2h[8:3],,,3,4qq5[4:1],5,{4}6pp5[4:1],
,4w8[24:7],{8},,,6h[2:1]/2h[2:1],
{16},,,,,,,,8-4[12:1],1,,7,{8}8,6,
{16}3>8[12:1],4,,5,{8}3,6,{16}7p3[12:1],8,,1,{8}7,2h[8:1],
{16}6,6h[8:1],,4,{8}4,4/5h[4:3],{32},,3,2,{8}1,1,1h[4:1],
{16},,,,5,1,{8}7h[8:1],{16}3,1,{8}5h[8:1],7h[8:1],5h[8:1],
3h[8:1],{16}5,5h[16:7],,4,{8}4h[4:1],{24},,,,,,5,4,5,6pp4[4:5]*pp4[4:5],5,4,
{1}3qq5[8:9]*qq5[8:9],
E
