&title=ネジ巻き師と太虚鳥
&artist=lasah; sasakure.UK
&first=0.263
&des=white crow
&des_5=
&lv_5=13+
&inote_5=(150){4}5h[4:1],{8},5h[4:1],{4},5,
{8}3h[4:1],{4},{8}3h[4:1],{4},3,
{8}7h[4:1],{4},{8}7h[4:1],{4},7,
{8}1h[4:1],{4},{8}1h[4:1],{4},1,
6h[4:1],{8}B5,6h[8:3],{2}4xq5[16:5],
{4}7h[4:1],{8}B6,7h[8:3],{2}5xp4[16:5],
{4}8h[4:1],{8}B2,8h[8:3],{2}4xq5[16:5],
{4}1h[4:1],{8}B3,1h[8:3],{2}5xp4[16:5],
{1}2bq4q6b[4:7],
{2}A8,A1,
{1}4<2q3[2:3],
4<1[2:1],
{4}2>4[8:1],{8}B6,7h[8:3],{2}5xp4[16:5],
{4}7<5[8:1],{8}B3,2h[8:3],{2}4xq5[16:5],
{4}1>4[8:1],{8}B7,8h[8:3],{2}5xp4[16:5],
{4}8<5[8:1],{8}B3,2-6-4[4:1],{2}6-8b[8:1],
{8}5x/7xh[8:3],5,4,3,2h[4:1],4,8h[4:1],5,
2xh[4:1],4,5,6,{24}7xh[8:3]/1xpp1[4:1],2x,3x,4x,{3},{8}8x,
8h[4:1],{24}5x,4x,3x,2x,{12},{8}6h[4:1],1,4h[4:1],7,
5h[4:1],3,8-2[8:1],8-6[8:1],{2}8-4[8:1],
{8}5/2xh[8:3],4,5,6,7h[4:1],5,1h[4:1],4,
7xh[4:1],5,4,3,{24}2xh[8:3]/8xqq8[4:1],7x,6x,5x,{3},{8}1x,
1h[4:1],{24}4x,5x,6x,7x,{12},{8}3h[4:1],8,5h[4:1],2,
4h[8:7],6h[8:1],,6h[8:1],,E6,E5,E4,
{16}3<6[8:1],{8},{16}2h[16:3],{4},{16}1>4[8:1],{8},{16}8h[16:3],{4},{16}7>2[8:1],
{8},{16}6h[16:3],{4},{16}5<8[8:1],{8},{16}4h[16:3],{4},{16}3V57[16:3],
{8},{16}2h[16:3],{4},{16}8V64[16:3],{8},{16}1h[16:3],{4},{16}2<7[16:3],
{8},{16}7>2[16:3],{8},5pp7[4:1],{2}5p1[8:1],
{16}6>3[8:1],{8},{16}7h[16:3],{4},{16}8<5[8:1],{8},{16}1h[16:3],{4},{16}2<7[8:1],
{8},{16}3h[16:3],{4},{16}4>1[8:1],{8},{16}5h[16:3],{4},{16}6V42[16:3],
{8},{16}7h[16:3],{4},{16}1V35[16:3],{8},{16}8h[16:3],{4},{16}6>3[16:3],
{8},{16}2>7[16:3],{8},1s5b[4:1],{2}8-4b[8:1],
{4}2x/4xq8[16:3],{8}1-3[32:3],2,{4}1p5[16:3],{8}4-2[32:3],3,
{4}4V68[16:3],{8}1-3[32:3],2,{4}1V75[16:3],{8}4-2[32:3],3,
{4}4V61[4:1],{8}2-5[8:1],3,{4}2V85[4:1],{8}4-1[8:1],3,
{4}4x<8b[4:1],{8}8>4b[4:1],2,{4}4<7[8:1],C,
7x/5xp1[8:1],{8}8-6[32:3]/5-3[32:3],7,{4}8q4[8:1],{8}5-7[32:3]/8-2[32:3],6,
{4}5V31[32:5],{8}8-6[32:3]/5-1[8:1],7,{4}8V24[32:5],{8}5-7[32:3]/8-4[8:1],6,
{4}5V38[32:5],{8}5-8[8:1]/7<4[8:1],6,{4}7V14[16:3],{8}5w1[8:1],6,
{1}5bxp3b[8:5]*q6b[8:5],
{8}B8/E1/B1,{4},{8}6xh[4:1]/E5/B5/B4,,2xh[4:3],,4v2<6[2:1],
{4},,,E5,
{8}3xh[4:1]/E6/B6/A6,{4},{8}7xh[4:1]/E2/B2/A2,{4},{8}8xz4[8:5],2xs6b[2:1],
{4},,,C,
5x/4xh[4:1],{8}3q5[8:3],5,3x,6,,7h[4:1],
,5,{4}5V36[16:5],{8}7x,7,{4},4/5h[4:1],
{8}6p4[8:3],4,6x,2,,1h[8:3],
{4},{8}5-3[8:1],3,2x,2,{4}8b-4b[8:1],
8/5-1-3[4:1],{8}6,4-6[8:1],,4/2-5b[8:1],,2/8V26[4:1],
,6pp3[48:19],5,4h[4:1],{4},1-5b[8:1],
1/4-8-6[4:1],{8}3,5V37[4:1],,5/7-4b[8:1],8,1-4[8:1]*-6[8:1],
,1>7[8:3],,3h[4:1],{4},1-5b[8:1],
1/4-8-6[4:1],{8}3,5-3[8:1],,5/7-4b[8:1],,7/1V73[4:1],
,3qq6[48:19],4,5h[2:1],,,,4,
3/6,{16}7,8,{8}7,1-4[8:1]/2-4[8:1],,1-6b[8:1]/2-6b[8:1],,2/1>8[8:5],
,,,Cfh[8:3],{2},{4}1bx/8bx,
{8}7-3[8:1],4,7V58[4:1],2,8V26[4:1]*V24[4:1],1,
,,,2qq1[24:5],7,2>6[4:1],5,6q3[32:7],
{4},{8}8V64[32:7],8,{16}4-1[16:3],{8},{16}1-6[16:3],{8},6-4[8:1],
{16}4>1b[16:3],{8},{16}1<6b[16:3],{8},C,,5qq4[4:1],4,3,
{4}1b,{8}2-6[8:1],5,2V41[4:1],7,1V73[4:1]*V75[4:1],8,
,,,7pp8[24:5],2,7<3[4:1],4,3pp7[8:3],
{4},{8}1,2bxh[4:1],,{16}6b,7bV58p5[32:29]`3bV14p1[32:29]*V14p1[32:29],{4}8bx/4bx,
{1},{16}3x/7bxh[4:1],
{8},{16}5,{8}5,{16}4,6,5,6,{8}4x-1[8:1],{4}8,
{16}7xh[4:1],{8},{16}3,{8}3,{16}5,4,6,4,{8}5x-8[8:1],{4}2,
{16}1xh[4:1],{8},{16}7,{8}7,{16}6,8,7,8,{8}6x-4[8:1],{4}3,
{16}1xh[4:1],{8},{16}7,{8}7,{16}6,8,7,8,{8}6x-4[8:1],{4}3,
{16}2bxh[4:1],{8},{16}4,{8}4,{16}5,3,4,3,{8}5x-8[8:1],{4}1,
{16}2xh[4:1],{8},{16}6,{8}6,{16}4,5,3,5,{8}4x-1[8:1],{4}7,
{16}8xh[4:1],{8},{16}2,{8}2,{16}3,1,2,1,{8}3x-5[8:1],{4}6,
{16}8xh[4:1],{8},{16}2,{8}2,{16}3,1,2,1,{8}3x-5[8:1],{4}6,
{16}6bx,6,4,5,{8}3h[8:1],{16}4,3,5,3,{8}6x-4[8:1],{4},{16}3x,
3,5,4,{8}6h[8:1],{16}5,6,4,6,{8}3x-5[8:1]*-6[8:1],{4}4,
E
