&title=うに
&artist=立秋
&first=2.55
&des=暮呓
&lv_5=10+
&inote_5=(131)
{1},
{1},
{1},
{1},
{4}1,2,3,4,
{4}5,6,7,8,
{4}1/5,2/6,3/7,4/8,
{1}1^6[2:1]/5^2[2:1],
{8}1-6[8:1],,4-1[8:1],,7,7,7,,
{8}1^4[4:1],1,4^7[4:1],8,,,,,
{8}8-3[8:1],,5-8[8:1],,2,2,2,,
{8}8^5[4:1],8,5^2[4:1],1,,,,,
{8}4-7[8:1],,1-4[8:1],,8,8,8,,
{8}1^4[4:1],1,4^7[4:1],8,,,,,
{8}5-2[8:1],,8-5[8:1],,1,1,1,,
{8}8^5[4:1],8,5^2[4:1],,2b,,,,
{4}1,8/2,3,2/4,
{4}5,4/6,7,6/8,
{4}8,1/7,6,7/5,
{4}4,5/3,2,3/1,
{4}1^4[4:1],4^7[4:1],7^2[4:1],2^5[4:1],
{4}5^8[4:1],8^3[4:1],3^6[4:1],6-2[4:1],
{4}2^7[4:1],7^4[4:1],4^1[4:1],1^6[4:1],
{4}6^3[4:1],3^8[4:1],8^5[4:1],5b,
{2}4h[8:3],6h[8:3],
{2}8h[8:3],2h[8:3],
{4}8/4,7/3,6/2,5/1,
{4}4^7[4:1]/8^3[4:1],,,7b/3b,
{8}8-5[8:1]/2-5[8:1],,,,7-3[8:1],2,,,
{8}2-6[8:1],7,,,8h[4:1]/4h[16:5],,,,
{8}1-4[8:1]/7-4[8:1],,,,2-6[8:1],7,,,
{8}7-3[8:1],2,,,1h[4:1]/5h[4:1],,,,
{8}5-8[8:1]/3-8[8:1],,,,6-2[8:1],3,,,
{8}3-7[8:1],6,,,1h[4:1]/5h[16:5],,,,
{8}4-1[8:1]/6-1[8:1],,,,3-7[8:1],6,,,
{8}6-2[8:1],3,,,8h[4:1]/4h[4:1],,,,
{8}1-6[8:1],,4-1[8:1],,7,7,7,,
{8}1^4[4:1],1,4^7[4:1],8,,,,,
{8}8-3[8:1],,5-8[8:1],,2,2,2,,
{8}8^5[4:1],8,5^2[4:1],1,,,,,
{8}4-7[8:1],,1-4[8:1],,8,8,8,,
{8}1^4[4:1],1,4^7[4:1],8,,,,,
{8}5-2[8:1],,8-5[8:1],,1,1,1,,
{8}8^5[4:1],8,5^2[4:1],,2b,,,,
{2}1^4[2:1],4^7[2:1],
{2}7^2[2:1],2-6[2:1],
{4}6^3[2:1],8,3^8[2:1],6,
{4}8^5[2:1],4,5-1[2:1],2,
{4}1^4[4:1],4^7[4:1],7^2[4:1],2^5[4:1],
{4}5^8[4:1],8^3[4:1],3^6[4:1],6-2[4:1],
{4}2^7[4:1],7^4[4:1],4^1[4:1],1^6[4:1],
{4}6^3[4:1],3^8[4:1],8^5[4:1],5,
{2}4h[8:3],2h[8:3],
{2}8h[8:3],6h[8:3],
{2}4h[4:1],2h[4:1],
{2}8h[4:1],6h[4:1],
{4}8/4,7/3,6/2,5/1,
{4}8/4,7/3,6/2,5/1,
{4}8h[8:1]/4h[8:1],7h[8:1]/3h[8:1],6h[8:1]/2h[8:1],5h[8:1]/1h[8:1],
{8}4^7[4:1]/8^3[4:1],4/8,,,,,7b/3b,,
{8}8-5[8:1]/2-5[8:1],,,,7-3[8:1],2,,,
{8}2-6[8:1],7,,,8h[4:1]/4h[16:5],,,,
{8}1-4[8:1]/7-4[8:1],,,,2-6[8:1],7,,,
{8}7-3[8:1],2,,,1h[4:1]/5h[4:1],,,,
{8}5-8[8:1]/3-8[8:1],,,,6-2[8:1],3,,,
{8}3-7[8:1],6,,,1h[4:1]/5h[16:5],,,,
{8}4-1[8:1]/6-1[8:1],,,,3-7[8:1],6,,,
{8}6-2[8:1],3,,,8h[4:1]/4h[4:1],,,,
{8}8^5[8:1]/2^5[8:1],,8/2,,7-3[8:1],2,7,,
{8}2-6[8:1],7,2,,8h[4:1]/4h[16:5],,,,
{8}1^4[8:1]/7^4[8:1],,1/7,,2-6[8:1],7,2,,
{8}7-3[8:1],2,7,,1h[4:1]/5h[4:1],,,,
{8}5^8[8:1]/3^8[8:1],,5/3,,6-2[8:1],3,6,,
{8}3-7[8:1],6,3,,1h[4:1]/5h[16:5],,,,
{8}4^1[8:1]/6^1[8:1],,4/6,,3-7[8:1],6,3,,
{8}6-2[8:1],3,6,,8b/4b,,,,
{8}1-6[8:1],,4-1[8:1],,7,7,7,,
{8}1^4[4:1],1,4^7[4:1],8,,,,,
{4}8-3[8:1],5-8[8:1],2h[4:1],,
{4}8^5[4:1],5^2[4:1],2,,
{8}4-7[8:1],,1-4[8:1],,8,8,8,,
{8}1^4[4:1],1,4^7[4:1],8,,,,,
{8}5-2[8:1],,8-5[8:1],,1,1,1,,
{8}8^5[4:1],8,5,,1,,7b/2b,,
E
