&title=おとわっか
&artist=ラグマット
&smsg_5=53位の男の運命
&first=0.89
&lv_1=1
&lv_5=輪
&des_1=音
&des_5=GANTZ
&wholebpm=160~180
&demo_seek=71.3
&demo_len=20
&inote_1=(180)
{4}1,8,1,8,1,8,1,8,1,8,1,8,1,8,1,8,1,8,1,8,1,8,1,8,1,8,1,8,1,8,1,8,
1,8,1,8,1,8,1,8,1,8,1,8,1,8,1,8,1,8,1,8,1,8,1,8,1,8,1,8,1,8,1,8,E
&inote_5=(180)
{16}
18,,,,36,,,,24,,35,,46,,57,,
,,12,,,,27,,1-4[8:1]/8-5[8:1],,,,1b/8b,,,,
45,,,,27,,,,68,,71,,82,,13,,
,,56,,,,36,,5-1[8:1]/4,,,,5/4>5[4:3],,,,
4b,,,,,,,,,,,,,,,,
,,3,4,3,,6,5,6,,3,4,3,,6,5,
6,,3,4,2,,6,5,7,,3,4,2,,6,5,
7,,3,4,1,,6,5,8,,2,1,2,1,2,1,
2,,1,8,7-4[8:1],,1,,7b,,8,1,2-5[8:1],,8,,
2b,,1,8,7-4[8:1],,1,,7b,,8,1,2-5[8:1],,8,,
2b,,1,8,7,,12,,18,,1,2,3,,18,,
78,,6,5,6,,4,4,,7,7,,38,,1b/2b,,
(170)
{16}
8/2-6[8:1],,8,,8,,8,,8/6-3[8:1],,8,,8,,8,,
8/3-1[8:1],,8,,8,,8,,8-3[8:1]/7-3[8:1],,,,8b/7b,,,,
2/5-8[8:1],,2,,2,,2,,2/8-4[8:1],,2,,2,,2,,
2,3,2,,3,4,3,,4,5,4,,5,6,5,,
4/6b-2[8:1],,4,,4,,4,,4/2-7[8:1],,4,,4,,4,,
4/7-5[8:1],,4,,4,,4,,4-6[8:1]/3-1[8:1],,,,34,,,,
7h[2:1]/1,,8,,1,,8,,1h[2:1],,8,,7,,8,,
7h[4:1],,,,,,1h[4:1]/5h[4:1],,,,,,2b/4b,,,,
7/8-4[8:1],,1,,8/7-3[8:1],,6,,7/8-4[8:1],,1,,8/7-3[8:1],,6,,
78,,1,,18,,27,,3v2[8:1]/6-1[8:1],,,,3b/6b,,,,
1-5[8:1]/2,,8,,1/2-6[8:1],,3,,1-5[8:1]/2,,8,,1/2-6[8:1],,3,,
12,,8,,18,,27,,3-8[8:1]/6v7[8:1],,,,3b/6b,,,,
8,7,1,6,8,,17,,2h[4:1]/8h[4:1],,,,,,,,
1,2,8,3,1,,28,,1h[4:1]/7h[4:1],,,,,,,,
1,,2,,3,,4,,5,,6,,7,,8,,
1,8,2,7,3,6,4,5,4-2[8:1]*-6[8:1],,,,4b,,,,
{16}
37,,26,,3-8[8:1]/7-4[8:1],,26,,37,,,,26,,37,,
2/6<1[8:1],,37,,26,,3,3,
,,4,,
5,,6,5,
7,,3,4,2,,2,,12,,83,,74,,56,,
3-8[8:1]/7-4[8:1],,,,3b/7b,,,,2-6[8:1]/6,,,,2b/6,,8h[4:1],,
,,1,7,2,,5,,6>3[8:1],,6,,2,,1h[4:1],,
,,8,2,7,,4,,3<6[8:1],,7,,38,,,,
26,,37,,2-5[8:1]/6-1[8:1],,37,,26,,,,37,,26,,
7/3>4[4:3],,,,,,,,6,,,,3,,,,
26,,37,,2/6<3[16:3],,37,,26,,,4,,,25,,
7,,,5,,,74,,8,,8,,1,,1,,
37,,26,,3>6[16:3]/7,,26,,37,,,,,,,,
7-1[8:1],,7,,3-5[8:1],,6-2[8:1],,6,,1b,,,,14,,
{16}
1,,5q2[8:1],4,,,,,4,,8p3[8:1],1,,,,,
2,,7,6,,,1,,5<2[8:1],,4p5[8:1],,,,,,
8,,4p7[8:1],5,,,,,5,,1q6[8:1],8,,,,,
8,,3,4,,,16,,1,8,1,8,27,,18,,
45,,3,4,,,16,,45,,6,5,,,83,,
12,,74,65,,,15,,26,,15,,84,,72,,
48,,2,6,,,15,,83,,5,1,,,26,,
36,,4,5,,,18,,7-3[8:1]/8-3[8:1],,16,,,,,,
1h[16:3],,3p6[8:1],3,,,,,8h[16:3],,6q3[8:1],6,,,,,
4h[16:3],,2^7[8:1],2,,,,,4-1[8:1],,7v5[8:1],,,,,,
1,,7-3[8:1],5,,,1,,2,,8-4[8:1],6,,,2,,
1,,8,1,,,18,,4,5,4,5,36,,45,,
{8}
3bqq8[2:1],,,,,,,,
7bqq4[2:1],,,,,8,1,2,
3/6h[2:1],,1b,,1b,,,5pp5[85#4:1]*qq5[85#4:1],
,37,46,5b,,,,,
6bpp1[2:1],,,,,,,,
2bpp5[2:1],,1,,8,,7,,
6/3h[2:1],,8b,,8b,,,1h[4:1]/2h[4:1],
,,12,38,47,,{16}6,5,{8},
(170)
{16}
7h[8:1]/5h[8:1],,,,6,,,,2h[8:1]/4h[8:1],,,,3,,,,
7h[8:1]/5h[8:1],,,,6,,5,,4-8[8:1],,,,47,,,,
78,,71,,72,,73,,46,,3,5,3,,17,,
12,,12,,78,,78,,1b-4[8:1]/8b-5[8:1],,,,,,,,
24,,24,,3,,4,,75,,75,,6,,5,,
4h[8:1]/5h[8:1],,,,36,,27,,18,,,,36,,,,
16,,16,,83,,83,,18,,27,36,4-1[8:1]/5-8[8:1],,45,,
45,,,,,,,,,,,,,,,,
{4}
2b/7b,,,,,,,,,,{16},,,
{16}
3,,4,,5,,6,,5,,4,5,4,,3,,
27,,,,,,,,,,,,,,,,
,,,,{16},,{24},,2b,{16},,,,{4},
,,{16},
(160)
{12}
45,45,45,
36,36,36,{16}5bv8[8:1]/3bv8[8:1],,,,,,,,
{24}1,2,3,8,7,6,2,3,4,7,6,5,{16}2h[16:3],,,,25,,25,,
{24}5,6,7,3,2,1,6,5,4,3,2,1,8<5[8:1],,,{16},,,,,,
{24}15,26,37,48,5,6,7,8,15,26,37,48,5,6,7,8,15,26,37,48,5,6,7,8,
15,26,37,48,5,6,{16}7-1[8:1],,5,,7,,,,5,6,7,8,
2,3,4,5,8,7,6,5,4,3,2,1,{16}8,,8v5[8:1]/2v5[8:1],,
{16}
,,2b/8b,,,,46,,37,,,,26,,{32}26,37,48,5qq2[2:1]/1qq6[2:1],
{16}
,,,,
,,,,
,,,,
,,,,
1b/7b,,,,,,,,
(180)
{16}
8<5[8:1],,17,,
8,1,2,3,
4-8[8:1],,,,4,,5,,
6,,7h[4:1],,,,1,,28,,28,,24,,2-6[8:1]/4-8[8:1],,
,,2b/4b,,,,17,,,,1,2,38,,8,7,
61,,1,2,38,,8,,8,,8,7,61,,1,,
,,24,,5,6,7,8,1v6[8:1],,3,,1,,2-7[8:1],,
5,,2,,,,5,,68,,68,,17,,1v3[8:1]/7-3[8:1],,
,,17,,,,12,,,,2,1,2,1,3,8,
3,8,74,,36,,4b-1[8:1]/5b-8[8:1],,,,,,,,,,
18,,17,,{24}7,6,5,4,3,2,{16}1b-5[8:1]/3,,,,1,,3,,
2,,15,,,,61,,6,,62,,6,,6-1[8:1]/3-8[8:1],,
,,3b/6b,,,,27,,,,2,1,2,,7,8,
7,,2,1,2,,78,,16,,78,16,25,,7h[8:1]/8h[8:1],,
,,1b/8b,,27,,3h[4:1]/6h[4:1],,,,,,{24}4,5,4,5,4,,
{16}
6,,7,,8,,1,,2,,3,,4,,4-8[8:1]/5-1[8:1],,
,,45,,,,8h[2:1]/1,,,,1,,2,,3,,
3,2,1,8,
5,6,7,8,
2,3,4,5,
8,7,6,5,
{24}8,1,2,3,4,5,6,7,8,1,2,3,{16}4bpp8[2:1]*qq8[2:1],,,,,,,,
,,,,,,,,
25,,3,4,3,,25,,2-5[8:1]*-5[8:1]/5-8[8:1]*-8[8:1],,,,2b/5b,,,,
7h[8:5]/1,,2,,3,,4,,5,,6>7[4:3]*>7[4:3],,,,6,,
,,,,6,,,,5,,,,4,,,,
4,,15,26,37,,15,,37,,37,,26,,26,,
1-4[8:1]/7-4[8:1],,,,1b/7b,,,,8-5[8:1]/2-5[8:1],,,,82,,,,
37,,1,82,73,,5,,5-1[8:1]*-1[8:1],,4,,5,,4,,
84,,3-8[8:1]/7-4[8:1],,,,3b/7b,,,,,,15,,2,,
3,,6,7,8,,4,,14,,14,,85,,85,,
7,,4,3,2,,6,,16,,16,,25,,25,,
3-7[8:1]/4-8[8:1],,,,34,,,,78,,1<2[4:3]*<2[4:3]/6,,,,1,,
,,,,1,,,,8,,,,7,,,,
6,,3,5,3,,35,,1h[8:1]/6h[8:1],,,,8h[8:1]/3h[8:1],,,,
2-7[8:1]*-5[8:1],,,,2,,,,7-2[8:1]*-4[8:1],,,,7,,,,
3,,5,4,5,,3h[2:1],,1,,8,,7,,6,,
5-7[8:1]*-3[8:1],,,,5b,,,,1-3[8:1]*-7[8:1],,,,1b,,,,
3h[4:1],,8,7,6,,3,,3h[4:1],,6,7,8,,3,,
3h[4:1],,7,6,5,,3,,1h[8:1]/2h[8:1],,,,7h[8:1]/8h[8:1],,,,
6h[4:1],,1,2,3,,6,,6h[4:1],,3,2,1,,6,,
6h[4:1],,2,3,4,,6,,7h[8:1]/8h[8:1],,,,1h[8:1]/2h[8:1],,,,
3h[4:1],,8,7,6,,3,,7h[4:1],,3,2,1,,7,,
2h[4:1],,7,6,5,,2,,8h[8:1]/2h[8:1],,,,1h[8:1]/7h[8:1],,,,
6h[4:1],,1,2,3,,6,,2h[4:1],,6,7,8,,2,,
7h[4:1],,2,3,4,,7,,56,,56,,4b/7b,,,,
12,,3,8,3,,4,7,4,7,4,7,4,,56,,
47,,3,6,3,,36,,4-7[8:1]/5-8[8:1],,45,,45,,,,
78,,1,6,1,,2,5,2,5,2,5,2,,34,,
25,,6,3,6,,36,,4-1[8:1]/5-2[8:1],,45,,45,,,,
12,,8,7,6,,3,4,2,5,3,4,2,,25,,
25,,6,7,8,,2,,12,,12,,18,,18,,
78,,1,2,3,,6,5,7,4,6,5,7,,74,,
6,5,6,5,6,4,6,4,6,3,6,3,6,2,6,2,
(180)
6,,7,,4,5,,3,,7,,2,8,1,7,2,
,6,5,,3,4,,6,,3,,7,4,,5,,
37,,2,,5,4,,6,,2,,7,1,8,2,7,
,3,4,,6,5,,3,,6,,2,5,,4,,
26,,7,,4,5,,3,,7,,2,8,1,7,2,
,6,5,,3,4,,6,,3,,7,4,,5,,
37,,2,,5,4,,6,,2,,7,1,8,2,7,
,3,4,,6,5,,27,,8,1,7,2,6,3,5,
46,,3,,8,1,,7,,3,,6,4,5,3,6,
,2,1,,7,8,,2,,7,,3,8,,1,,
37,,5,,1,8,,2,,6,,3,5,4,6,3,
,7,8,,2,1,,7,,2,,6,1,,8,,
26,,3,,8,1,,7,,3,,6,4,5,3,6,
,2,1,,7,8,,2,,7,,3,8,,1,,
37,,5,,1,8,,2,,6,,3,5,4,6,3,
,7,8,,2,1,,36,,45,,5,4,6,3,7,
2b/8b,,6,,3,4,3,,26,,3,,6,5,6,5,
46,,7,,1,8,1,8,17,,17,,28,,28,,
17,,3,,6,5,6,,37,,6,,3,4,3,4,
35,,2,,8,1,8,1,28,,28,,17,,17,,
25,,7,,2,1,2,,37,,2,,7,8,7,8,
17,,6,,4,5,4,5,46,,{24}8,7,6,{16}5,,36,,
47,,6,5,6,,3,,25,,3,4,3,,6,,
37,,4,5,36,,27,,{24}1-5[8:1]/8-4[8:1],27,36,{16}45,,1b/8b,,,,
37,,2,,7,8,7,,16,,7,,3,4,3,4,
25,,6,,2,1,2,1,38,,38,,27,,27,,
25,,6,,2,1,2,,38,,2,,6,5,6,5,
47,,3,,7,8,7,8,16,,16,,27,,27,,
46,,3,,6,5,6,,47,,6,,2,1,2,1,
38,,7,,3,4,3,4,25,,{24}1,2,3,{16}4,,18,,
25,,3,4,3,,6,,47,,{24}18,27,36,{8}45,26,
4^1[8:1]/8^5[8:1],,4q8[8:1]/8q4[8:1],,48,,2b/6b,,
{16}
28,,1,8,2h[8:5],,,,7,,6^3[45#32:1]*^3[45#32:1],,7,,8,,
,,7h[4:1],,,,1h,,,,6,,8,,1,,
17,,8,1,7h[8:5],,,,2,,3^6[45#32:1]*^6[45#32:1],,2,,1,,
,,2h[4:1],,,,8h,,,,3,,1,,8,,
64,,4,3,2h[8:5],,,,1,,8V64[45#16:1]*V64[45#16:1],,7,,6,,
,,2h[4:1],,,,7h,,,,8,,1,,2,,
35,,5,6,7h[8:5],,,,8,,1V35[45#16:1]*V35[45#16:1],,2,,3,,
,,7h[4:1],,,,2h,,,,1,,8,,7,,
73,,2,1,2h[4:1],,,,8,,7-5[45#32:1]*-5[45#32:1],,1,,2,,
,,1h[8:1]/2h[8:1],,,,7h[8:1]/8h[8:1],,,,7,1,2,3,4,,
26,,7,8,7h[4:1],,,,1,,2-4[45#32:1]*-4[45#32:1],,8,,7,,
,,7h[8:1]/8h[8:1],,,,1h[8:1]/2h[8:1],,,,2,8,7,6,5,,
73,,4,5,4h[4:1],,,,5,,6-8[45#32:1]*-8[45#32:1],,4,,3,,
,,3h[8:1]/4h[8:1],,,,5h[8:1]/6h[8:1],,,,6,4,3,2,1,,
35,,5,4,5h[4:1],,,,3,,4-8[45#32:1]*-8[45#32:1],,6,,5,,
,,3h[8:1]/4h[8:1],,,,5h[8:1]/6h[8:1],,,,4,5,6b,,,,
{16}
18,,81,2,3,,18,7,6,,81,2,3,,18,,
27,,27,3,4,,27,6,5,,27,3,4,,27,,
36,,36,2,1,,36,7,8,,36,2,1,,36,,
45,,4,5,3,6,2,7,1,,17,26,3b/5b,,17,,
18,,18,2,3,,18,7,6,,24,35,46,,28,,
18,,18,7,6,,18,2,3,,75,64,53,,17,,
78,,78,1,2,,78,6,5,,78,16,25,,78,,
17,,3,4,3,4,3,4,3,,5,6,7b,,12,,
82,,1,8,1,8,1,8,{24}1,2,3,{16}4,,7,,36,,
45,,4,5,4,5,4,5,{24}4,3,2,{16}1,,6,,27,,
18,,8,1,8,1,8,1,{24}8,7,6,{16}5,,2,,36,,
45,,5,4,5,4,5,4,{24}5,6,7,{16}8,,3,,27,,
18,,1,8,1,7,1,8,{24}1,2,3,{16}4,,7,,36,,
18,,8,1,8,2,8,1,{24}8,7,6,{16}5,,2,,36,,
45,,4,5,3,6,4,,46,37,28,,4/6-1[8:1],,4,,
6,,4,,3,,1,8,7b,,35,,4b,,3b/5b,,
2b/6b,,1,7,1,7,1,,8-4[8:1],,8,,1-3[8:1],,1,,
6,,6h[16:1],,,5h[16:1],,,4-8[8:1],,,,43,,2,,
1,,1,8,1,,18,,27,,5-1[8:1],6,,6,5,,
7,,8,1,8,,12,,8/3v1[8:1],,,,3b,,7,,
6,,2,5,2,5,2,,34,,25,,16,,78,,
{32}1,2,3,4,{16},,{32}8,7,6,5,{16},,{32}45,36,27,18,{16},,{32}18,27,36,45,{16},,
47,,5,6,5,,47,,35,,4-8[8:1],3,,3,4,,
2,,2,1,2,,28,,1b/7b,,,3b/6b,,,2b/8b,,
1bv4[8:1],,,,17,,7,6,5,,3,4,,6,5,,
37,,2,1,,7,8,,27,,3,6,3,6,3,,
45,,35,35,,46,46,,27,,17,17,,82,82,,
{32}3,4,5,6,7,8,1,2,3,4,5,6,7,8,1,2,{16}3b,,,,6h[4:1]/5,,7,,
8,,1,7,1,,17,,18,,8,2,8,,28,,
{32}8,7,6,5,{16},,{32}1,2,3,4,{16},,{32}45,36,27,18,{16},,{32}18,27,36,45,{16},,
27,,2,7,2,,18,,18,,1,2,,8,7,,
35,,35,46,57,,12,,3,8,3,8,3,,38,,
47,,6,5,,6,5,,25,,3,4,,3,4,,
2,6,2,6,3,7,3,7,3,6,3,,{32}45,36,27,18,,,,,
{16}
2,,1/8-4[8:1]*-4[8:1],,7,,1-5[8:1]*-5[8:1]/8,,2,,1/8-4[8:1]*-4[8:1],,7,,18,,
{24}1,2,3,4,5,6,7,8,1,2,3,4,5,6,7,8,,,{16}28,,,,
3,,4/5-1[8:1]*-1[8:1],,6,,4-8[8:1]*-8[8:1]/5,,3,,4/5-1[8:1]*-1[8:1],,6,,45,,
4,3,2,1,8,7,6,5,4h[8:1],,,,26,,,,
1,,7^5[8:1]*^5[8:1]/8,,6,,7/8^2[8:1]*^2[8:1],,1,,7^5[8:1]*^5[8:1]/8,,6,,78,,
{24}7,6,5,4,3,2,1,8,7,6,5,4,3,2,1,8,,,{16}36,,,,
3,,1^7[8:1]*^7[8:1]/2,,8,,1/2^4[8:1]*^4[8:1],,3,,1^7[8:1]*^7[8:1]/2,,8,,12,,
2,3,4,5,
6,,18,,
{16}
1pp1[4:1]*pp1[4:1]*pp1[4:1]*pp1[4:1],,8,,1<2[2:1]*<2[2:1]*<2[2:1]*<2[2:1],,7,,7,,,,,,,,
,,,,8qq3[8:3]*qq3[8:3]*qq3[8:3]*qq3[8:3],,8,,4h[8:3],,,,,,,,
,,3qq6[8:3]*qq6[8:3]*qq6[8:3]*qq6[8:3],,8,,8h[8:3],,,,,,,,,,
,,7-3[8:1]*-3[8:1]*-3[8:1]*-3[8:1],,7,,1,,1,,,,2-5[8:1]*-5[8:1]*-5[8:1]/4-8[8:1]*-8[8:1]*-8[8:1],,,,
24,,,,,,2-5[8:1]*-5[8:1]*-5[8:1]*-5[8:1],,,,12,,8,,7,,
56,,4,,35,,2v5[8:1]*v5[8:1]*v5[8:1]*v5[8:1],,,,12,,8,,7,,
46,,3,,24,,1b-5[8:1]*-5[8:1]*-5[8:1]*-5[8:1],,,,18,,7,,6,,
45,,3,,24,,1b-5[8:1]*-5[8:1]*-5[8:1]*-5[8:1],,,,17,,8,,1,,
24,,5<4[2:1]*<4[2:1]*<4[2:1]*<4[2:1]*<4[2:1],,4,,3/5b,,,,,,,,,,
,,,,3pp8[8:3]*pp8[8:3]*pp8[8:3],,3,,7h[8:3],,,,,,,,
,,,,6pp4[8:3]*pp4[8:3]*pp4[8:3],,6,,1h[8:3],,,,,,,,
,,,,25,,36,,47,,,,5-2[8:1]*-2[8:1]*-2[8:1]/6-1[8:1]*-1[8:1]*-1[8:1],,,,
56,,,,,,7-4[8:1]*-4[8:1]*-4[8:1]*-4[8:1],,,,78,,1,,2,,
34,,5,,46,,7v4[8:1]*v4[8:1]*v4[8:1],,,,78,,1,,2,,
35,,6,,57,,8b-4[8:1]*-4[8:1]*-4[8:1],,,,28,,1,,8,,
57,,4,,3,,1b-5[8:1]*-5[8:1]*-5[8:1]/2b-6[8:1]*-6[8:1]*-6[8:1],,,,12,,,,78,,
6,,1-4[8:1]*-4[8:1]*-4[8:1]/5-8[8:1]*-8[8:1]*-8[8:1],,,,15,,,,3b/7b,,,,,,
{1},,,,,
{8},,,{32},,,,
45,36,27,18,
,,,,
{4},
,,,{16},,,7h[16:3]/3h[16:3],
,,,,,,,,8h[16:3]/2h[16:3],,,,,,,,
,,,,,,,,,{32}12,83,74,65,{16},,,47,,
{1},,{16}
,,,3h[8:1]/5h[8:1],,,,,,,,,,,,,
,,,,,,,,4h[16:5],,,,,5h[4:1],,,
,2,,2h[4:3]/7h[4:3],,,,,,,,,,,,,
,,,,,,,,,,,27,,,,,
1>8[4:3]*>8[4:3]*>8[4:3]*>8[4:3]*>8[4:3]/8<1[4:3]*<1[4:3]*<1[4:3]*<1[4:3]*<1[4:3],,,,{4},,,{16}
,,,,36,,3-8[8:1]/6-1[8:1],,,,,,,,,,
,,,,,,,,,,,,,1-5[1024#8:1]/8-4[1024#8:1],,,
{1},{16}
,4h[4:3]/6h[16:15],,,{4},,,
{32}3,2,1,8,{16},,,,,,,,,,,,,,
,,,,,,,,,2h[16:13]/4h[8:5],,,,,,,
,,,,,,1,,,,,{32},
(136)
{16}
7b-4[8:1]*-4[8:1]/8b,,,,7,,3,2,1,,15,,26,,73,,
8v5[8:1]/4v1[8:1],,,,84,,,15,1-3[8:1]/5-7[8:1],,,,15,,,,
7,,76,,6,,65,,5,,54,,4,,43,,
2,2,5,5,1,1,6,6,6b/8b,,,,{12}68,71,82,
{16}
3h[8:1],,,,3<1[4:1]*<1[4:1]*<1[4:1]*<1[4:1]*<1[4:1],,,,3h[4:1],,,,,,,,
6V84[8:1]*v4[8:1],,,,,,,,2V48[8:1]*V48[8:1]*V48[8:1]/6V84[8:1]*V84[8:1]*V84[8:1],,,,,,,,
7v5[8:1]*v5[8:1]*v5[8:1]/3v5[8:1]*v5[8:1]*v5[8:1],,,,,,,,8V26[8:1]*V26[8:1]*V26[8:1]/4V62[8:1]*V62[8:1]*V62[8:1],,,,,,,,
2,,23,,3,,34,,4,,45,,5,,56,,
8,8,7,7,6,6,5,5,4,4,3,3,2,2,1,1,
8,,,,18,18,18,18,27,,,,,,,,
{1},,E
