&title=センチメンタルクライシス
&artist=halca
&first=0
&des=reflectW
&lv_5=11+
&inote_1=
&inote_5=(77.5)
{1},
{32},,,,,,,,,,,,,,,,,,,3qq4[4:1],,,,,,,,,,,,,,,,,8qq3[4:1],,,,,,,,,,,,,,,,4pp2[4:1],,,,,,,,,,,,,,,,7pp5[4:1],,,,,,,,,,,,,,,,3,,,,5,,,,4,,,,6,,,,2,,,,5,,,,3,,,,6,,,,4,,,,5,,3,,5,,,,1,,,,8v5[8:1]/1v4[8:1],,,,,,,,,,,,,,,,
(167)
{8}2h[4:1],,5h[4:1],,3,4,5h[4:1]/6,7,
{8}8,1h[4:1]/4,3,2,,4,3h[4:1]/5,,
{16},,5,4,6,,2h[4:1],,,,8,,8qq5[8:6]*>4[8:3],,,,
{8},,,,,,,,
{8}4h[8:3],,,7h[8:3],,,1,2,
{8}3pp2[8:4],,,7,,,6,,
{8}5h[8:3],,,3h[8:3],,,8,7,
{8}6q7[8:4],,,2,,,3,,
{8}4h[8:3],,,5h[8:3],,,1,2,
{8}3V52[8:4],,,7,,,8,,
{8}12,12,38,38,47,47,56,5/6pp1[8:5],
{8}5,4,3,2,,,,,
{8}3,,42,,5,,46,,
{8}2^4[8:1],2,8,,7^5[8:1],7,1,,
{8}4,,35,,6,,57,,
{8}3-1[8:1],3,7,,6-8[8:1],6,2,,
{8}3,,42,,5,,46,,
{8}1,,28,,3,5,4pp1[2:1],,
{8}6,,,,8,,,3,
{8}5,4,6,,2qq5[2:1],,,,
{8}6,,,,5h[4:1],,3,4,
{8}3,5,2h[4:1],,5,3,5,4,
{8}6,5-2[8:1],,,1,,3,1,
{16}3,,1,,38,,2,1,2,,8,,3,,7,,
{8}4,6,5-1[8:1],4,5,,2,83,
{8}4,,7,61,5,24,{16}3,5,3,5,
{8}3h[8:2],,1,83,7,46,5,{16},3,
{16}4h[4:1],,,,2h[4:1],,,,5,,3,5,4w8[8:1],,,,
{8},,2,8,3,7,4,{16},5,
{16}4-8[8:1],,6,,4,,,,17,,8,2,8,,3,4,
{16}3,,25,,1,,86,,5,,35,,4-8[8:1],6,4,6,
{16}4,,5b,,,,,,{32}1,2,3,4,5,6,7,8,1b/5b,,,,,,,,
{4}3-7[8:1],8-4[8:1]/3,8/2q5[8:3],25,
{4}7,8^5[8:1],3^8[8:1]/8,34,
{4}5,1^4[8:1],6^1[8:1]/1,65,
{4}4,8<4[4:1],4>8[4:1],8V64[4:1],
{4}4V28[4:1],8,3,1>5[4:1],
{4}5qq2[8:3],2,,
{4}7-4[8:1],7/8-3[8:1],8/5^8[8:1],5/4qq1[8:3],
{4}4,,{16}2,7,2,7,2-5[8:1],,6,,2,,,,
{4}6-2[8:1],1-5[8:1]/6,1/7p4[8:3],74,
{4}2,1^4[8:1],6^1[8:1]/1,65,
{4}4,8^5[8:1],4pp7[8:3]/8,34,
{4},1V35[4:1],5V71[4:1],1>5[4:1],
{4}5<1[4:1],1,6,7^4[8:1],
{4}3pp8[8:3]/7,23,,
{4}2-5[8:1],2b/1-6[8:1],1b/4^1[8:1],4bqq1[8:3]/5q8[8:3],
{4}4b/5b,,{16}2,7,2,7,2,,,,1,,26,,
{16}3,,5,,26,,3,5,4,,6,,17,,4,,
{16}6,,4,,73,,6,4,5,,3,,28,,5,,
{16}17,,4,,28,,5,,1,1,7,7,3,3,5,5,
{1}4bpp4[8:5]*qq4[8:5],,,E
