&title=夢で夜空を照らしたい
&artist=Aqours/TVアニメ「ラブライブ!サンシャイン!!」第6話挿入歌
&first=1.25
&des=Ragna
&wholebpm=92
&demo_seek=84.2
&demo_len=39.5
&des_5=Ragna
&lv_5=13+
&inote_5=(92){48}2,3,{24}4h[4:1],,,,,,5h[4:1],,,,,,3,,4,,,16,,,16,,,,
7h[12:1],,5,6,,2h[8:1],,,4,3qq4[3:1],,,,,,6h[8:1],,,,,6,,,,
5h[4:1],,,,,,4h[4:1],,,,,,6,,5,,,83,,,83,,,,
{16}6h[8:1]/4h[8:1],,,5/3h[16:3],,,8bw4[8:1],,,,,,,,{32}4,3,2,1,{16}
6pp4[32:9],,,,4,,,,2h[16:3],,,3h[16:3],,,4,,
3qq5[32:9],,,,5,,,,7h[16:3],,,6h[16:3],,,5,,
6-1[8:1],,1-5[8:1],,5-2[8:1],,2>8[32:9],,,,1,,2,,3,,
4-1[8:1],,1-6[8:1],,6<4[32:9],,5h[8:3],,{4},,
4^2[12:1]/5,4qq4[32:9]/5,5,5,
5^3[12:1]/6,5qq5[32:9]/6,6,6,
7h[4:1]/6^3[8:1],,6^3[8:1]/3h[4:1],,
2h[4:1]/3^6[8:1],3<2[16:5],6,,
6^8[12:1]/3,6p4[16:5]/3,3,3,
5^7[12:1]/2,5p3[16:5]/2,2,2,
1h[4:1]/4^7[8:1],,7h[4:1]/4^1[8:1],,{16}
1h[8:1]/8h[8:1],,,5h[8:1]/7h[8:1],{8},4q5[4:1]/5,,,8,,
7/5^7[12:1],6,45,,2/4^2[12:1],3,45,,
7/5^8[8:1],6,45,,2/4^1[8:1],3,45,,
7/5q1[8:1],6,45,,2/4p8[8:1],3,4pp4[4:1]/5,,
2h[4:3]/4>5[32:11],,,,,,8,,
7/5^7[12:1],6,5^3[12:1]/3,4,8/5^8[8:1],6,5^2[8:1]/2,4,
5q1[8:1]/1q5[8:1],,1>8[32:9]/5,,,,1,,
8/4^7[8:1],6,24,,4/8^3[8:1],2,86,,
85,36,14,2b/7b,,34,65,78,
1b/2-4[8:1],4-8[8:1]/5b-7[8:1],1b/2,5b,,78,65,34,
2/7v6[8:1],3v2[8:1]/6v7[8:1],27,3,,27,34,65,
7/1b-4[8:1],4-8[8:1]/5b-2[8:1],7/1b,5b,,28,17,{16}6,5,
7h[8:1]/4h[8:1],,,2h[8:1]/5h[8:1],{8},18,,78,65,42,
1/8b-4[8:1],4pp6[8:1]/3bqq1[8:1],1/8b,3b,,16,45,23,
1^4[8:1]/5,4p8[8:1]/8p4[8:1],15,8,,15,74,13,
4/5^8[8:1],6,4^1[8:1]/5,3,5^8[8:1]/4,7,45,2,
{24}4/8b,,4b/8,,,3,6,,,1b/5,,1/5b,,,6,3,,,2b/7b,,,{16}1-7[16:1],7-5[16:1],
5-3[16:1],,,,,,8^2[16:1],2^4[16:1],4^6[16:1],,,,,,1-7[16:1]*^7[16:1],7-5[16:1]*^5[16:1],
5>5[4:1]*V31[8:1],,,,,,,,,,1^4[8:1],,5^8[8:1],,1,,
5,,{24}4,,8^5[8:1]*^3[8:1],,,26,,,,{16},,,,35,,18,,
7h[8:1]/5h[8:1],,,4h[8:1]/5h[8:1],,,1^4[8:1]/4,,,,,,8,,4-6[16:1],6-8[16:1],
8-2[16:1],,,,,,5^3[16:1],3^1[16:1],1^7[16:1],,,,,,4-6[16:1]*^6[16:1],6^8[16:1]*-8[16:1],
8V24[8:1]*>8[4:1],,,,,,,,,,4v1[8:1],,8v5[8:1],,4,,
8,,{24}1,,5v2[8:1]*v8[8:1],,,28,,,,{16},,,,28,,34,,
75,,{24}8,,1v4[8:1]*v6[8:1],,,4^2[12:1]/6^8[12:1],,,,,,,,,,,,1,8,,8,{8}
1^4[8:1],4,1^6[8:1],6,1-5[8:1],5-1[8:1],1,6,
8^5[8:1],5,8^3[8:1],3,8-4[8:1],4-8[8:1],8,3,
1^4[8:1],4,1^6[8:1],6,1-5[8:1],5-1[8:1],1^6[8:1],6bpp3[16:5],
,,,,8w4[8:1],,8,,
5-1[8:1]/4,6,4-8[8:1]/5,3,5-1[8:1]/4,7,4-8[8:1]/5,2,{4}
5bV74[4:1]/4bV25[4:1],4b>5[16:5]/5b<4[16:5],,,
4-7[8:1]*-8[8:1],4-1[8:1],8^3[8:1]/4^7[8:1],8q1[4:1]/4,
84,2bpp8[4:1],8b<1[32:9],5b,
8b-4[8:1]*-3[8:1],8-5[8:1],8^3[8:1]/4^7[8:1],4q5[4:1]/8,
84,6bpp4[4:1],4b>5[32:9],1b,
3b-1[12:1]*-5[12:1],3-7[8:1],7^2[8:1]/3^6[8:1],7p4[4:1]/3,
73,1b<2[16:5],5b,8b,{8}
1^4[8:1]/5,4-1[8:1]/8,1-6[8:1]/5,6<4[4:1],,5h[4:1],,,
4^1[8:1]/5,1-5[8:1]/8,4/5<4[24:7],8h[8:3],,,,,
5h[4:1],,4h[4:1],,{24}8,,1,,,27,,,27,,,,
3h[12:1],,4,2,,6h[8:1],,,5,{8}7-3[2:1],,1,,,
,,{64},{80}3,4,,,,{8},{80}4,5,,,,{8},{128},65,{16},,,45,,,{32},3,4,5,{8}
6^3[8:8],,,,,,,,,{16},{32}5,6,7,8h[32:34],,,
{1},E
