&title=恋愛脳-キサラ
&artist=会沢紗弥
&first=0
&des=梗小姐
&lv_5=12
&inote_5=(156){1},
{16}7^4[8:3],,,,,,,,3^8[8:3],,,,,,,,
{16}6^3[8:3],,,,,,,,2^7[8:3],,,,,,,,
{16}5^2[8:3],,,,,,,,1^6[8:3],,,,,,,,
{16}4^1[8:3],,,,,,,,8,,,,,,,,
{16}6h[4:3],,,,5,,,,4,,,,3,,,,
{16}2h[4:3],,,,4,,,,5,,,,6,,,,
{16}7,,7,,8,,8,,1,,1,,2,,2,,
{16}3,,3,,4,,4,,5b-1[8:1],,,,1b,,,,
{16}2^7[8:1],,,,6<3[4:1],,,,5,,,,,,1,,
{16}2,,5qq5[16:5]*pp5[16:5],,,,5,,,,,,,,46,,
{16}3/7h[4:1],,,,8,,1h[4:1],,6,,5-1[8:1],,,,4-8[8:1],,
{16},,7<2[16:5],,,,1,,1,,,,,,,,
{16}18,,,,5,,4,,3h[8:1],,5,,6h[8:1],,1,,
{16}27,,,,5,,6,,7h[8:1],,1,,2h[8:1],,1,,
{16}8^5[4:1],,,,5p8[4:1],,,,8p3[4:1],,,,2,,,,
{16}1,,,,3-6[4:1]/6^3[4:1],,36,,,,,,,,,,
{16}18,,,,4,,5,,6h[8:1],,3,,4h[8:1],,7,,
{16}58,,,,3,,5,,1h[8:1],,7,,6h[8:1],,3,,
{16}4>8[4:1],,,,8<4[4:1],,,,4^1[16:3],,,,8,,8,,
{16},,1,,6q3[4:1]/2,,5,,4,,,,,,,,
{16}27,,,,45,,6,,7h[8:1],,8,,1h[8:1],,3,,
{16}24,,,,78,,1,,2h[8:1],,6,,7h[8:1],,3,,
{16}4q1[4:1]/6,,,,1^4[4:1],,,,4,,,,7,,7pp2[16:10],,
{16},,3,,4,,5,,6,,,,,,,,
{16}15,,,,46,,3,,2h[8:1],,1,,8h[8:1],,6,,
{16}57,,,,35,,6,,7h[8:1],,1,,2h[8:1],,8,,
{16}3^6[8:1]/7,,,,7^2[8:1],,,,4^7[8:1],,,,8w4[8:1],,,,
{16},,,,,,,,,,45,,3,5,2,6,
{16}1b,,1,8,2,,2,1,3^8[8:1],,3,,6^3[8:1],,6,,
{16}2^7[8:1],,2,,6^3[8:1],,6,,2,,,,1,,2,,
{16}3/5^8[8:1],,5,,2^5[8:1],,2,,7^2[8:1],,7,,4,,4,,
{16}13,,28,,17,,2-6[8:1]/6,,,,8,,8,,,,
{16}7,,7,8,6,,2,1,3^8[8:1]*^6[8:1],,,,3,,,,
{16}15,,2v4[8:1]/7v5[8:1],,,,27,,,,36,,27,,18,,
{16}2^7[8:1],1,2,,,,,,6^3[8:1],5,6,,,,,,
{16}2^5[8:1],1,2,,,,,,56,,1,8,2pp4[8:1]/7qq5[8:1],,,,
{16}27,,,,,,,,,,72,,72,,,,
{16}1^4[8:1]/5^8[8:1],,,,1p5[8:1]/5p1[8:1],,,,1>4[8:1]/5<8[8:1],,,,,,,,
{16}37,,46,,52,,4-8[8:1]/3,,,,14,,,,3,8,
{16}4,,6,2,5<3[4:1],,3,7,5,,,,4,,6,,
{16}37,,4^1[8:1]/8^5[8:1],,1/5,,4q5[4:1]/8,,,,8,,8,,,,
{16}2^7[8:1],,2,,6^3[8:1],,6,,1^6[8:1],,1,,5,,5,,
{16}46,,2pp4[8:1]/5^8[8:1],,16,,25,,,,1,,38,,27,,
{16}1h[8:1],,7,8,6h[8:1],,4,5,3h[8:1],,1,2,8h[8:1],,1,7,
{16}2,,35,,28,,46,,17,,35,,2,6,3,5,
{16}1b,,,,45,,6,5,8,,3,4,1,,26,,
{16}4^1[8:1]/8^5[8:1],,,,8q4[8:1]/4q8[8:1],,,,8qq6[8:1]/4qq2[8:1],,,,,,,,
{16}3b/7b,,,,46,,8,5,7,,1,4,2,,46,,
{16}2/8p3[8:1],,,,4p7[8:1]/8,,,,6w2[8:1],,,,6,,,,
{16}8b/4b,,,,25,,7,8,5,,2,1,4,,37,,
{16}1^4[8:1]/5^8[8:1],,,,5qq3[8:1]/1qq7[8:1],,,,5>1[8:1]/1<5[8:1],,,,,,,,
{16}1b/5b,,,,12,,7,8,5,,2,1,4,,38,,
{16}45,,16,,35,,48,,36,,15,,7,4,6,5,
{16}8bq5[8:1],,,,4>5[16:4]/8,,,,47,,,,,,84,,
{16}26,,3qq4[32:9]/5pp4[32:9],,,,35,,,,,,,,46,,
{16}1-5[8:1]/8,,,,16,,7,,48,,3,5,1,,4^1[8:1]*^7[8:1]/8,,
{16},,4b,,{24},,,8,7,6,5/1w5[8:1],,,,,,
{16},,,,,,,,,,,,,,,,E
