&title=Pictured as Perfect
&artist=Frums
&first=0.95
&des=
&smsg_5=Happy APFD
&des_5=Neopharmazz
&lv_5=14+
&inote_5=(95){48},,,,,,,,,,,,,,,,,,,,,,,,,,,,,,,,,,,,,,,,,,,,,,,,,,,,,,E7/E3,,,,,E8/E2,,B7/B2,,B6/B3,,E6/E4,,Cf,,,,,,,,,,,,
3,,1,1,3,,2,,2,,2,,6,,,,6,,,,2,,2,,6,,,,6,,,,2,,2,,Cf,,,,,,,,,,,,
1,1,3,,3,,2,,2,,2,,6,,,,6,,,,2,,2,,2,,6,,,,6,,,,2,,Cf,,,,,,,,,,,,
3,,3,,1,1,2,,2,,2,,6,,,,6,,,,2,,2,,2,,6,,,,2,,2,,2,,Cf,,,,,,,,,,,,
1,1,1,1,3,,2,,2,,6,,,,2,,6,,,,2,,2,,2,,6,,,,6,,,,2,,{72}7x,,,,,,,4x,,,,7x,,,,,,,
{48}3,,1,1,3,,2,,2,,2,,6,,,,6,,,,2,,2,,{64}5x,,,,,5x,,,,,3x,,,3x,,,{48}Cf,,,,,,,,,,,,
1,1,3,,3,,2,,2,,2,,6,,,,6,,,,2,,2,,{64}3x,,,5x,,,,,5x,,,,,3x,,,{48}Cf,,,,,,,,,,,,
3,,3,,1,1,2,,2,,2,,6,,,,6,,,,2,,2,,{56}3x,,,2x,,3x,,,3x,,,3x,,,{48}Cf,,,,,,,,,,,,
1,1,1,1,3,,2,,2,,6,,,,2,,6,,,,2,,2,,{68}4x,,,,4x,,,,4x,,,,4x,,,,7x,,,,,,,4x,,,,7x,,,,,,,
{48}3$,,1$,1$,3$,,2$,,2$,,2$,,6$,,,,6$,,,,2$,,2$,,6$,,,,6$,,,,2$,,2$,,Cf,,,,,,,,,,,,
1$,1$,3$,,3$,,2$,,2$,,2$,,6$,,,,6$,,,,2$,,2$,,2$,,6$,,,,6$,,,,2$,,Cf,,,,Cf,,,,,,,,
3$,,3$,,1$,1$,2$,,2$,,2$,,6$,,,,6$,,,,2$,,2$,,2$,,6$,,,,2$,,2$,,2$,,Cf,,,,,,,,,,,,
1$,1$,1$,1$,3$,,2$,,2$,,6$,,,,2$,,6$,,,,2$,,2$,,2$,,6$,,,,6$,,,,2$,,{72}7x$,,,,,,,4x$,,,,7x$,,,,,,,
{48}3$,,1$,1$,3$,,2$,,2$,,2$,,6$,,,,6$,,,,2$,,2$,,{64}5x$,,,,,5x$,,,,,3x$,,,3x$,,,{48}Cf,,,,,,,,,,,,
1$,1$,3$,,3$,,2$,,2$,,2$,,6$,,,,6$,,,,2$,,2$,,{64}3x$,,,5x$,,,,,5x$,,,,,3x$,,,{48}Cf,,,,,,,,,,,,
3$,,3$,,1$,1$,2$,,2$,,2$,,6$,,,,6$,,,,2$,,2$,,{56}3x$,,,2x$,,3x$,,,3x$,,,3x$,,,{48}Cf,,,,,,,,,,,,
1$,1$,1$,1$,3$,,2$,,2$,,6$,,,,2$,,6$,,,,2$,,2$,,{68}4x$,,,,4x$,,,,4x$,,,,4x$,,,,7x$,,,,,,,4x$,,,,7x$,,,,,,,
{48}C,,,,,,,,,,,,C/B1/B8/B4/B5,,,,,,,,,,,,C/B2/B3/B6/B7,,,,,,,,,,,,C/B1/B2/B3/B4/B5/B6/B7/B8,,,,,,,,,,,,
8,,,,8,,,,8,,,,1,,,1,,,1,,1,,1h[48:1],,2h[48:1],,2,,2h[48:1],,2,,2,,2,,3,4,5,6,7,8,1,2,3,4,5,6,E2/E4/E6/E8/Cf,,,,,,,,,,,,
(95.15)8-5[8:1],,,,,,,,8`E7,,C,,E3,,,,,,,,E7,,C,,E3`1-4[8:1],,,,,,,,1`E7,,C,,E3,,,,,,,,E7,,C,,
E3`5-8[8:1],,,,,,,,5`E7,,C,,E3,,,,,,,,E7,,C,,E3`4-1[8:1],,,,,,,,4`E7,,C,,E3,,,,,,,,E7,,C,,
E3`7-2[8:1],,,,,,,,7`E7,,C,,E3,,,,,,,,E7,,C,,E3`6-3[8:1],,,,,,,,6`E7,,C,,E3,,,,,,,,E7,,C,,
E3`2-7[8:1],,,,,,,,2`E7,,C,,E3,,,,,,,,E7,,C,,E3`3-6[8:1],,,,,,,,3`E7,,C,,E3,,,,,,,,E7,,C,,
E3`8-4[8:1],,,,,,,,8`E7,,C,,E3,,,,,,,,E7,,C,,E3`1-5[8:1],,,,,,,,1`E7,,C,,E3,,,,,,,,E7,,C,,
E3`7-3[8:1],,,,,,,,7`E7,,C,,E3,,,,,,,,E7,,C,,E3`2-6[8:1],,,,,,,,2`E7,,C,,E3,,,,,,,,E7,,C,,
E3`4z8[8:1],,,,,,,,4`E7,,C,,E3,,,,,,,,E7,,C,,E3`6-3[8:7],,,6x,,,,6x,E7,,(95)C,,,,,,,,,,,,,,
,,,,,,,,,,,,,,,,,,,,,,,,,,,,,,,,{96}E5/E4,E6/B5,B4/B3,B6/E7,Cf,E3/B2,B8/B7,B1/E2,{48}E1/E8,,,,,,,,,,,,
7q4[8:1],,,,,,,,7`E7,,C,,E3,,,,,,,,E7,,C,,E3`2p5[8:1],,,,,,,,2`E7,,C,,E3,,,,,,,,E7,,C,,
E3`6p1[8:1],,,,,,,,6`E7,,C,,E3,,,,,,,,E7,,C,,E3`3q8[8:1],,,,,,,,3`E7,,C,,E3,,,,,,,,E7,,C,,
E3`8q5[8:1],,,,,,,,8`E7,,C,,E3,,,,,,,,E7,,C,,E3`1p4[8:1],,,,,,,,1`E7,,C,,E3,,,,,,,,E7,,C,,
E3`5p8[8:1],,,,,,,,5`E7,,C,,E3,,,,,,,,E7,,C,,E3`4q1[8:1],,,,,,,,4`E7,,C,,E3,,,,,,,,E7,,C,,
E3`7p8[8:1],,,,,,,,7`E7,,C,,E3,,,,,,,,E7,,C,,E3`2q1[8:1],,,,,,,,2`E7,,C,,E3,,,,,,,,E7,,C,,
E3`6q5[8:1],,,,,,,,6`E7,,C,,E3,,,,,,,,E7,,C,,E3`3p4[8:1],,,,,,,,3`E7,,C,,E3,,,,,,,,E7,,C,,
E3`5p4[8:1],,,,,,,,5`E7,,C,,E3,,,,,,,,E7,,C,,E3`1x,,,1x,,,,1x,E7,,C,,E8,{96},{48},,,,,,,,,,,
B8/B6/B4/B2,,,,,,,,,,,,E1/E3/E5/E7,,,,,,,,,,,,B1/B3/B5/B7,,,,,,,,,,,,Cf/B1/B2/B3/B4/B5/B6/B7/B8/E1/E2/E3/E4/E5/E6/E7/E8,,,,,,,,,,,,
,,,,,,,,,,,,,,,,,,,,,,,,,,,,,,,,,,,,,,,,,,,,,,,,
,,,,,,,,,,,,,,,,,,,,,,,,,,,,,,,,,,,,,,,,,,,,,,,,
,,,,,,,,,,,,,,,,,,,,,,,,,,,,,,,,,,,,,,,,,,,,,,,,
,,,,,,,,,,,,,,,,,,,,,,,,{96}B1,B2,B3,B4,B5,B6,B7,B8,E1,E2,E3,E4,E5,E6,E7,E8,1,2,3,4,5,6,7,8,
{24}1xh[4:1],,,,,,E8,E4,B7,B3,B6,B2,E6,E2,B5,B1,B4,B8,E5,E1,E6,E2,E7,E3,
7xh[4:1],,,,,,E2,E6,B2,B6,B3,B7,E4,E8,B4,B8,B5,B1,E5,E1,E4,E8,{48}E3,B3,B4,E5,
{24}6xh[4:1],,,,,,B2,B1,E3,E1,B3,B8,B5,B6,E5,E7,B4,B7,E3,E1,E4,E8,E5,E7,
1xh[12:1],,B6,B4,B8,B2,C,1xh[12:1],,E6,E3,E8,1xh[24:2],,,8xh[24:2],,,7xh[24:1]/1xh[24:1],,6xh[24:1]/2xh[24:1],,5xh[24:1]/3xh[24:1],,
4xh[4:1]/2x,,,,,,2,E8,E2,C,E4,E6,3,B1,B4,C,B3,B6,4,E7,E5,E1,E3,C,
1xh[4:1],,,,,,7,E2,E8,C,E6,E4,6,B8,B5,C,B6,B3,5,E3,E5,E2,{48}E7,B7,B8,E1,
{24}4xh[4:1],,,,,,7,E1,E5,E3,E7,C,2,E5,E1,E3,E7,C,7,E1,E7,E5,C,E3,
1xh[12:1],,E4,E6,E2,E8,C,8xh[12:1],,{48}E1,B1,B2,E3,B3,B4,{24}E5/7xh[12:1],,,E1/2xh[12:1],,,1xh[24:1]/3xh[24:1],,8xh[24:1]/4xh[24:1],,7xh[24:1]/5xh[24:1],,
6xh[6:1]/2x,,,,2,,C,E7,2,E8,C,E1,2,B8,C,B7,2,B6,C,B5,2,E5,C,E6,
2xh[6:1],,,,7,,C,E3,7,E2,C,E1,7,B1,C,B2,7,B3,C,B4,7,E5,C,E4,
7xh[6:1],,,,4,,C,E1,4,B8,C,E8,3,B7,C,E7,2,B6,C,E6,1,B5,C,E5,
8xh[12:1],,B5,B1,B7,B3,C,1xh[12:1],,E7,E5,E3,2xh[12:1],,,7xh[12:1],,,1xh[24:1]/8xh[24:1],,2xh[24:1]/7xh[24:1],,3xh[24:1]/6xh[24:1],,
4xh[4:1]/5x,,,3,,,8,B4,B5,1,B6,B3,7,E4,E6,2,E8,E2,3,B2,B7,6,B8,B1,
5xh[4:1]/4x,,,6,,,1,B5,B4,8,B3,B6,2,E6,E4,7,E2,E8,6,B7,B2,3,B1,B8,
4x,E8,3,E7,2,E6,1,E5,8,E4,7,E3,6,E2,5,E1,4,E8,3,E7,2,E6,1,E5,
8xh[12:1],,E7,E1,E5,E3,C,5xh[12:1],,E1,E5,C,2xh[12:1]/6xh[12:1],,,3xh[12:1]/7xh[12:1],,,4xh[24:1]/8xh[24:1],,1xh[24:1]/5xh[24:1],,{48}2x/6x,37,48,51,
,,,,6bpp4[12:44]/3bqq5[12:44]/Ch[12:47],,,,,,,,,,,,,,,,,,,,,,,,,,,,,,,,,,,,,,,,,,,,
,,,,,,,,,,,,,,,,,,,,,,,,,,,,,,,,,,,,,,,,,,,,,,,,
,,,,,,,,,,,,,,,,,,,,,,,,,,,,,,,,,,,,,,,,,,,,,,,,
,,,,,,,,,,,,,,,,,,,,,,,,,,,,,,,,,,,,,,,,,,,,,,,,
,,,,,,,,,,,,,,,,,,,,,,,,,,,,,,,,,,,,,,,,,,,,,,,,
,,,,,,,,,,,,,,,,,,,,,,,,,,,,,,,,,,,,,,,,,,,,,,,,
,,,,,,,,,,,,,,,,,,,,,,,,,,,,,,,,,,,,,,,,,,,,,,,,
,,,,,,,,,,,,,,,,,,,,,,,,,,,,,,,,,,,,,,,,,,,,,,,,
,,,,,,,,,,,,,,,,,,,,,,,,,,,,,,,,,,,,,,,,,,,,,,,,
,,,,,,,,,,,,,,,,,,,,,,,,,,,,,,,,,,,,,,,,,,,,,,,,
,,,,,,,,,,,,,,,,,,,,,,,,,,,,,,,,,,,,,,,,,,,,,,,,
,,,,,,,,,,,,,,,,,,,,,,,,,,,,,,,,,,,,,,,,,,,,,,,,
,,,,,,,,,,,,,,,,,,,,,,,,,,,,,,,,,,,,,,,,,,,,,,,,
,,,,,,,,,,,,,,,,,,,,,,,,,,,,,,,,,,,,,,,,,,,,,,,,
E
