&title=妖怪の山 ~ Mysterious Mountain
&artist=上海アリス幻樂団
&first=0
&des=Acadm
&clock_count=4
&lv_2=3
&lv_3=7
&lv_4=11+
&lv_5=13+
&inote_2=(168){1},
,
{4}3,,,
{4}6,,,
{4}4,,,
{4}5,,,
{4}34,,,
{4}56,,,
{4}24,,,
{4}57,,,
{4}3h[2:3]/4h[2:3],,,
{4},,,
{4},,,
{4}34,,,
{4}6h[2:3]/5h[2:3],,,
{4},,,
{4},,,
{4}65,,,
{4}18,,,
{4},,,
{4}12,,,
{4},,,
{4}34,,,
{4},,,
{4}45,,,
{4},,,
{4}81,,,
{4},,,
{4}87,,,
{4},,,
{4}65,,,
{4},,,
{4}54,,,
{4},,,
{4}4h[2:3],,,
{4},,,
{4},,,
{4},,,
{4}5h[2:3],,,
{4},,,
{4},,,
{4},,,
{4}2h[2:3],,,
{4},,,
{4},,,
{4},,,
{4}7h[2:3],,,
{4},,,
{4},,,
{4},,,
{2}3,3,
{1}3,
{2}6,6,
{1}6,
{2}4,4,
{1}4,
{2}5,5,
{1}5,
{2}2,2,
{1}2,
{2}7,7,
{1}7,
{2}1,1,
{1}1,
{2}8,8,
{1}8,
{4}1h[4:9]/8h[4:9],,,
{4},,,
{4},,,
{4},,,
{4}2q5[1:2]*q5[1:2]/7,,,
{4},,,
{4},,,
{4},,,
{4}8b,,,
&inote_3=(168){1},
,
{4}3,3,,
{4}6,6,,
{4}2,2,,
{4}7,7,,
{4}34,34,,
{4}56,56,,
{4}34,24,,
{4}56,57,,
{4}3,3,3,
{4}43,,,
{4}6,6,6,
{4}65,,,
{4}2,2,2,
{4}12,,,
{4}7,7,7,
{4}78,,,
{4}34,,,
{4}2,3,4,
{4}56,,,
{4}7,6,5,
{4}21,,,
{4}3,2,1,
{4}8h[4:3]/7h[4:3],,,
{4},,,
{4}65,,,
{4}7,6,5,
{4}43,,,
{4}2,3,4,
{4}78,,,
{4}6,7,8,
{4}1h[4:3]/2h[4:3],,,
{4},,,
{4}1-4[1:1],,,
{4},,,
{4}26,,,
{4},,,
{4}8-5[1:1],,,
{4},,,
{4}73,,,
{4},,,
{4}4-1[1:1],,,
{4},,,
{4}37,,,
{4},,,
{4}5-8[1:1],,,
{4},,,
{4}62,,,
{4},,,
{4}2,2,2,,
{4}3,3,3,,
{4}4,4,5,5,
{4}4,4,36,,
{4}7,7,7,,
{4}6,6,6,,
{4}5,5,4,4,
{4}5,5,63,,
{4}3,3,3,,
{4}2,2,2,,
{4}1,1,8,8,
{4}1,1,27,,
{4}6,6,6,,
{4}7,7,7,,
{4}8,8,1,1,
{4}8,8,72,,
{4}1-4[2:5]/8-5[2:5],,,
{4},,,
{4},,,
{4},,,
{4}2q5[2:5]*q5[2:5]/7,,,
{4},,,
{4},,,
{4},,,
{4}8b,,,
&inote_4=(168){1},
,
{8}3,4,2,5,1,6,
{8}4,5,3,6,2,7,
{8}5,6,4,7,3,8,
{8}2,3,4h[4:1],,5,,
{4}34,25,16,
{4}45,36,27,
{4}56,47,38,
{8}7,6,5h[4:1],,4,,
{4}3v8[8:1],4-7[8:1],1,
{4}4v1[8:1],5-8[8:1],2,
{4}5v2[8:1],6-1[8:1],3,
{8}67,,5,4,3,,
{4}6v1[8:1],5-2[8:1],8,
{4}5v8[8:1],4-1[8:1],7,
{4}4<3[1:1],,,
{4}2h[4:3],,,
{8}5h[8:5],,4,3,2,1,
{4}78,16,25,
{8}4h[8:5],,6,7,6,5,
{4}34,25,16,
{8}56,,3,4,2,4,
{8}1-5[8:1],,8,,7,6,
{8}5-1[8:1],4,3,,82,,
{4}8/2q5[8:3],,,
{8}4h[8:5],,5,6,7,8,
{4}21,83,74,
{8}5h[8:5],,3,2,3,4,
{4}65,74,83,
{8}43,,6,5,7,5,
{8}8-4[8:1],,1,,2,3,
{8}4-8[8:1],5,6,,17,,
{4}1/7<1[8:3],,,
{4}8-5[8:1]*-3[8:1],,,
{8}4,3,2,1,8,7,
{4}56,47,,
{4}12,38,,
{4}5-8[8:1]*-2[8:1],,,
{8}1,2,3,4,5,6,
{4}8-3[8:1]/7-4[8:1],,,
{4}1-6[8:1]/2-5[8:1],,,
{4}1-4[8:1]*-6[8:1],,,
{8}5,6,7,8,1,2,
{4}43,52,,
{4}87,61,,
{4}4-1[8:1]*-7[8:1],,,
{8}8,7,6,5,4,3,
{4}1-6[8:1]/2-5[8:1],,,
{4}78,16,25,
{16}34,,,,34,,2,1,3,,3-7[8:1],,,,6,,
{16}6h[8:3],,,,,,7,6,8,,,,1,,1,,
{16}1h[8:3],,,8,,,6,,5h[8:3],,,2,,,4,,
{4}5w1[8:1],,37,,
{16}65,,,,65,,,,7,,7,8,6,,6-2[8:1],,
{4}3,4,56,47,
{16}8h[8:3],,,1,,,3,,4h[8:3],,,7,,,5,,
{4}4w8[8:1],,62,,
{16}21,,,,21,,3,4,2,,2-6[8:1],,,,7,,
{16}7h[8:3],,,,,,6,7,5,,,,4,,4,,
{16}4h[8:3],,,5,,,7,,8h[8:3],,,3,,,1,,
{4}8w4[8:1],,26,,
{16}78,,,,78,,,,6,,6,5,7,,7-3[8:1],,
{4}2,1,87,16,
{16}5h[8:3],,,4,,,2,,1h[8:3],,,6,,,8,,
{4}1w5[8:1],,7-3[8:1]/3-7[8:1],,
{4}1>4[4:1],,,
{4}8<5[4:1],,,
{4}2q6[4:1],,,
{4}7p3[4:1],,,
{4}56,47,38,
{4}45,36,27,
{4}34,25,16,
{4}18,2q5[4:1]*q5[4:1]/7,,
{4}8b,,,
&inote_5=(168){1},
,
{8}3b-6[8:1],2,1,8-3[8:1],7,6,
{8}5-8[8:1],4,3,2-5[8:1],1,8,
{8}7-2[8:1],6,5,4-7[8:1],3,2,
{16}1-4[8:1],,8,,7,6,5,,3,,3,,
{8}36,2,14,8,72,6,
{8}58,4,36,2,14,8,
{8}72,6,58,4,36,2,
{16}14,,8,,72,6,5,,24,,3,,
{8}48,7,56,1,45,2,
{8}51,2,43,8,54,7,
{8}48,7,56,1,45,2,
{8}15,2V83[24:5]/6V47[24:5],37,26,,,
{8}51,2,43,8,54,7,
{8}48,7,56,1,45,2,
{8}5b/1,2,43,5,68,1,
{16}27,,,,2q5[4:1],1,3,8,2,,,,
{8}8<5[8:1],,1v4[8:1],2,3,2,
{8}1>4[8:1],,8v5[8:1],,7,,
{8}8<5[8:1],,1v4[8:1],2,3,2,
{8}1>4[8:1],,8v5[8:1],,7,,
{8}8<5[8:1],,1v4[8:1],2,3,2,
{8}1w5[8:1],,1,,37,26,
{8}1bv6[8:1]/5,2,1>5[8:1]/3,,1,{24}6,7,8,
{16}1,,,,48,,3,7,3,,26,,
{8}1>4[8:1],,8q5[8:1],7,6,7,
{8}8<5[8:1],,1p4[8:1],,2,,
{8}1>4[8:1],,8q5[8:1],7,6,7,
{8}8<5[8:1],,1p4[8:1],,2,,
{8}1>4[8:1],,8q5[8:1],7,6,7,
{8}8w4[8:1],,8,,62,73,
{8}8bv3[8:1]/4,7,8<4[8:1]/6,,8,{24}3,2,1,
{16}8,,,,51,,6,2,6,,73,,
{4}2q5[4:1],8,,
{8}5,6,7,{24}1,8,1,{8}7,6,
{4}2q5[4:1],8,,
{4}2q5[4:1],28,,
{4}7p4[4:1],71,,
{8}4,3,2,{24}8,1,8,{8}2,3,
{8}4,,24,3,24,,
{16}5,,,,75,,6,,7,5,7,5,
{8}7p4[4:1],4,1>4[8:1],,,,
{8}5,6,7,{24}1,8,1,{8}7,6,
{8}7p4[4:1],4,1>4[8:1],,,,
{8}7p4[4:1],4,7/1>4[8:1],,,,
{4}1b-5[8:1],,{8},{24}8,7,6,
{8}5/8b-4[8:1],,,,,,
{8}45,{32}3,4,5,6,{8},,1-5[8:1],,
{4}2b-6[8:1],3b-7[8:1],4b,
{16}12,,2,4,3,,45,,6>3[8:1],5,7,,8,,8,,
{16}7,,7,5,6,,45,,3,2,1h[4:1],,4,,4,,
{16}56,,3,4,,7,5,,34,,6,5,,2,4,,
{16}7,,7,6,,6,5,,5V31[8:1],,6,,7b,,,,
{16}7-3[8:1]/8,,6,,78,,1,,2,,2,4,3,,45,,
{16}57,,2,4,,6,5,,24,,7,5,,3,4,,
{16}6h[4:1],,8,,3h[4:1],,1,,6,8,7,1,8,2,1,3,
{8}1q5[8:1],3,1v6[8:1],3,1-7[12:1],3,1,,
{16}56,,6,8,7,,81,,2<7[8:1],1,3,,4,,4,,
{16}3,,3,1,2,,81,,7,6,5h[4:1],,8,,8,,
{16}12,,7,6,,2,4,,65,,2,4,,7,8,,
{16}2,,2,3,,3,4,,{32}4,5,6,7,8,1,2,3,{4}4b,
{16}2-6[8:1]/1,,3,,21,,8,,7,,7,5,6,,54,,
{16}42,,7,5,,3,4,,56,,3,4,,5,4,,
{16}34,,2,,18,,7,,6,5,7,4,8,3,1,2,
{16}8h[4:1],,2,,3h[4:1],,7,,6h[4:1],,4,,4,6,3,5,
{4}2bq5[2:5],,,
{4},,,
{4},,,
{4},,,
{8}63,7,85,1,27,3,
{8}41,5,63,7,85,1,
{8}27,3,41,5,63,7,
{16}85,,1,,2q5[4:1]*q5[4:1],1,2,1,2,,,,
{4}8b,,,
