&title=ロケットサイダー
&artist=ナユタン星人 (神楽めあ ver.)
&first=0.6
&des=A橘長
&lv_5=13+
&inote_5=(198)
{1},,,
{4}5,5,5,3b,
{8}
2,2,5,5,34,,
4,4,7,7,56,,
2,6,1,7,
1,1,6,6,78,,
8,8,3,3,12,,
{16}4,,4,3,2,,2,,
{16}
8,,2,,8,7,6,,4,,,,
4,,6,,4,3,2,,8,,,,
2,,8,,1,,7,,
7,,1,,7,6,5,,3,,,,
3,,5,,3,2,1,,7,,,,
5,,4,,6,,,,
6,,4,,6,7,8,,2,,,,
2,,8,,2,3,4,,6,,,,
3,,7,,2,,8,,1h[4:1],,,,8,,2,,8,,3,,8,,4,,7,,26,,2,3,4,,48,,,,8,,,,
37,,48,,8,7,6,,26,,,,
37,,48,,4,3,2,,26,,,,
2,,8,,1,,7,,
26,,37,,7,6,5,,15,,,,
26,,37,,3,2,1,,15,,,,
4,,5,,3,,,,
37,,48,,8,7,6,,26,,,,
37,,48,,4,3,2,,26,,,,
3,,7,,2,,8,,1h[4:1],,,,8,,2,,8,,3,,7,,4,,37,,37,,,,,,2b/6b,,2b/6b,,
{4},
6h[4:7]/5,4,
{8},4,4,,
{4}5,4,
{8},4,4,,
{4}3h[4:3]/4,5,
{8},5,5p4[8:3],,
{4}5,3,
{8},5,4,,
{4}6h[4:7]/5,4,
{8},4,4,,
{4}5,4,
{8},4,4,,
{4}3h[4:3]/4,5,
{8}6,7,7p5[8:3],,
{4}7/3h[4:1],,
{8},4,5,,
{8}
46,3,2,1,,71,62,3,
6,3,2,1,,71,62,3,
53,6,7,8,,28,3p3[8:3]/7,6,
3b,6,7,8,2,
{16}8,7,62,3,4,,
{4}5h[16:3],6h[16:2],7h[4:1]/8,8h[1:1],
{1},
{4}4/6h[4:3],
{16}2,3,,,
{8}4,,2,,37,7,17,7,27,7,4b/7b,,
{16}
2/6p5[8:3],,7,,62,3,4,,4,,,,
7/3q4[8:3],,2,,37,6,5,,5,,,,6,,6,,3,,7,,
7/3q4[8:3],,2,,37,6,5,,5,,,,
2/6p5[8:3],,7,,62,3,4,,4,,,,6,,1,,6,,,,
6/2p1[8:3],,3,,26,7,8,,8,,,,
3/7q8[8:3],,6,,73,2,1,,1,,,,
3,,7,,2,,8,,1h[4:1],,,,8,,2,,8,,3,,8,,4,,7p5[8:4],,6,,2,3,4,,4,,,,4,,,,
{8}
2,,3,2,,5,6,3,
,5,6,7,,4,3,2,
15,6,7,8,,4,3,2,
,4,3,2,,5,6,37,
4,3,2,1,,5,6,7,
,5,6,7,,4,3,2,
5,4,6,4,3,7,3,6,3,7,2,8,1,,,,
37,26,37,26,37,,
26,37,26,37,26,,
37,27,17,,
28,17,28,17,28,,
28,17,28,17,2/8-4[8:1],
{16},1,
{4}8b,,
{1}6h[1:1],
{8}
4h[8:4],,,,
7h[8:4],,,,
1h[1:1],,
{1},
{4},
2h[2:1],,
6h[1:1],,,,
3h[2:1],,
7h[2:1],,,,,,
{8}1,1,1,1,1,
{16}1,8,1,8,1,8,
{8}2b-5[8:1]/6b,3,2/6-1[8:1],7,6/3-8[8:1],2,3/6<6[2:1],7,26,
,,,,,3,,
{8}27,
{16}3,4,3,,
{8}72,
{16}6,5,6,,
{8}2/7pp2[2:1],
{16}3,4,
{2}3,
{8},,2/8q4[8:1],,
6,,1p5[8:1]/7,,3,,
7q3[8:1]/1,,5,,
4q8[8:1]/6,,2,,2<6[4:1],2,
2/6qq3[4:2],,,,8,7,6,5,,,,8,
7,,6,,
{16}7h[4:3]/1,,1,,2,3,4,,5,,,,
5,,5,,4/6h[1:2],3,2,,1,,,,
8,,1,,1,,1,,
2,,2,,2,3,4,,5,,,,
5,,5,,4,3,2,,1,,,,
5,,4,,6,,,,
6,,4,,6,7,8,,2,,,,
2,,8,,2,3,4,,6,,,,
3,,7,,2,,8,,1h[4:1],,,,8,,2,,8,,3,,8,,4,,7,,6,,2,3,4,,5,,,,6,,,,
{8}27,7,2-4[8:1]/7,7,27,,
63,3,6-8[8:1]/3,3,3v5[4:1]/6,,
3,,6,,
{8}72,2,7-5[8:1]/2,2,72,,
36,6,3-1[8:1]/6,6,6v4[4:1]/3,,
6,,3,,
{8}27,6,2-4[8:1]/7,6,27,,
63,2,6-8[8:1]/3,2,3v5[4:1]/6,,
3,,6,,
{8}72,3,7-5[8:1]/2,3,72,,
36,7,3-1[8:1]/6,7,6v4[4:1]/3,,
6,,3,,
{8}26,37,2-8[8:1]/6,37,26,,
37,,6-8[8:1]/2,,2v4[4:1]/6,,
2,,6,,
{8}73,62,7-5[8:1]/3,62,73,,
37,26,3-1[8:1]/7,26,3/7-5[8:1],,
7/4-1[8:1],,74,,
{8}37,15,3-1[8:1]/7,15,37,,
26,48,6-8[8:1]/2,48,26,,
2/5-8[8:1],,25,,
1-5[8:1],1,,
8-4[8:1],8,,
1-6[8:1],2,,
8-3[8:1],7,,
{6}2,2,2,
{8}3/5h[4:6],,,,3qq6[2:1],,,,,,,7,8,,,,
{4}5<8[8:1]/8-3[8:1],85,
{4}4>1[8:1]/1-6[8:1],14,
{6}27,27,27,
{2}36,,,
{4}1-7[8:1],1-5[8:1],1w5[8:1],1b,
{8}36,
{16}2,1,2,,
{8}63,
{16}7,8,7,,
{8}36,36,
{8}62,,,,1,8,1,7,
1/7<5[8:1],6,7/1q5[8:1],2,1/7,6,7-1[8:1],6,7/3v2[4:1],4,37,6,7-5[8:1],8,4>5[1:1]/7,,
4,,7,,,,2,3,
4,4,36,6,2,2,17,,
{8}7-4[8:1]/3,6,7/3-8[8:1],2,3/6-1[8:1],7,6/3>3[2:1],2,73,
,,,,,6,,
{8}72,
{16}6,5,6,,
{8}27,
{16}3,4,3,,
{8}7/2,27,1,8,2,5,4,6,3,6,
8/2>4[8:1],3,2/8p4[8:1],7,8/2,3,2-8[8:1],3,2/6v7[4:1],5,62,3,2-4[8:1],1,5<4[1:1]/2,,
5,,2,,,,7,6,
5,5,63,3,7,7,82,,
28,8,2/8-4[8:1],8,28,,
35,5,3/5-1[8:1],5,35,,
8-5[8:1]/2,8,28,,
64,4,6/4-8[8:1],4,64,,
71,1,7/1-5[8:1],1,71,,
{16}6,,4,7,3,7,2,7,
{8}2/7qq4[2:1],,73,,,,3>7[4:1],,
3/7pp3[4:2],,,,6,,6<1[4:1],,6/4>1[4:1],,4,,,8,7,6,
35,5,4,46,5,4,36,,
{8}7-4[8:1]/3,6,7/3-8[8:1],2,3/6-1[8:1],7,6/3-8-5-2-7[4:3],2,73,
,,,,,,,
{8}72,
{16}6,5,6,,
{8}27,
{16}3,4,3,,
{8}7/2,27,1,8,2,5,4,6,3,6,
{8}8<6[4:1]/2pp5[2:1],,28,,,,6pp4[2:1],,
6/3,,,,2,2,3>8[8:1],,5<8[8:1],,5,,1,2,5h[4:1]/3h[4:1],,
{4},4-8[8:1],3-7[8:1],2qq6[1:1],
(49.5){1}6<6<2[2:1],
(198)
{16}37,,48,,8,7,6,,26,,,,
37,,48,,4,3,2,,26,,,,
3,,7,,2,,8,,1h[4:1],,,,8,,2,,8,,3,,8,,4,,7,,26,,2,3,4,,48,,,,8,,,,
37,,48,,8,7,6,,26,,,,
37,,48,,4,3,2,,26,,,,
2,,8,,1,,7,,
26,,37,,7,6,5,,15,,,,
26,,37,,3,2,1,,15,,,,
4,,5,,3,,,,
37,,48,,8,7,6,,26,,,,
37,,48,,4,3,2,,26,,,,
3,,7,,2,,8,,1h[4:1],,,,8,,2,,8,,3,,7,,4,,37,,37,,,,,,2b/6b,,2b/6b,,,,,,
8,,2,,8,7,6,,4,,,,
4,,6,,4,3,2,,8,,,,
26,,26,,
