&title=Den of Daylight
&artist=獅子神レオナ
&first=0
&des=Dororo
&clock_count=4
&lv_5=13
&inote_5=(170.00)
{1},,
{16}4x/5x,,3,4,2x,,6,5,7x,,1xw5[8:1],,,,1x,,
{16},,3x/7,,2/6x,,1x/5,,4xh[4:1]/8qq6[8:1],,,,8pp3[4:3]*pp4[4:3],,,,
{16},,,,,,,,,,,,,,,,
{16},,4pp4[4:1],,4-1[8:1],,,,,,,,A1/B1/Cf/B5/A5,,,,
{16}2x,,4,,37,,5,,2,,3,4,3,,2/8h[4:1],,
{16},,1,,6,,7,5,7-5[8:1]*-3[8:1],,1,,,,,,
{16}2,,4,,38,,6,,2,,3,4,3,,1/5h[4:1],,
{16},,8,,5,,7,4,7,,B1/E2/B2,,B1/E2/B2,,,,
{16}7x,,5,,62,,4,,7,,6,5,6,,7/1h[4:1],,
{16},,8,,3,,2,4,2-4[8:1]*-6[8:1],,8,,,,,,
{16}7,,5,,61,,3,,7,,6,5,6,,8/4h[4:1],,
{16},,7,,4,,2,6,2,,B8/E8/B7,,B8/E8/B7,,,,
{16}2xh[4:3]/5x,,,,4,,,,4,,,,4qq5[2:1],,,,
{16}5,,,,6,,,,7x-1[8:1],,,,5x,,,,
{16}8h[4:1]/4h[8:1],,,,5h[8:1],,,,1h[4:1]/3h[8:1],,,,4h[8:1],,,,
{16}2h[8:1]/8h[8:1],,,,3h[8:1]/7h[8:1],,,,6h[8:1]/4^2[8:1]*qq2[8:1],,,,,,,,
{16}8xh[4:3]/3x,,,,5,,,,5,,,,5pp1[2:1],,,,
{16}4,,,,3,,,,2x-8[8:1]*v4[8:1],,,,2x,,,,
{16}7h[8:1]/5h[8:1],,,,2h[8:1]/5h[8:1],,,,6h[8:1]/5h[8:1],,,,3h[8:1]/5h[8:1],,,,
{16}7h[8:1]/5h[8:1],,,,1-6-4b[4:1],3,1,3,,,,,,,,,
{16}2xp6[8:1]`3x-6[8:1],,,,E3f,,,,7x/5xh[1:1],,,,4,,4,,
{16},,6,,6,,,,8,,,,58,,,,
{16}7xq3b[8:1]/6x-3b[8:1],,,,E7f,,,,2x/4xh[1:1],,,,5,,5,,
{16},,3,,3,,,,1,,,,41,,,,
{16}2xp6[8:1]`3x-6[8:1],,,,E3f,,,,7x/5xh[1:1],,,,4,,4,,
{16},,6,,6,,,,8-4[8:1],,,,18,,,,
{16}2^5[4:1],,,,5^8[4:1],,,,8^3[4:1],,,,3,,,,
{16}4-1[8:1],,5-8[8:1],,4,,5,,,,2b/7b,,2b/7bp2[8:4],,,,
{16}1hx[2:1],,,,,,,,,,,,3xp6[8:4],,,,
{16}5h[2:1],,,,,,,,,,,,7xz3[8:4],,,,
{16}2h[2:1],,,,,,,,,,,,1x-5-7[2:1],,,,
{16}4hb[2:1],,,,,,,,,,{32}D8,A8,{16},,,,,
{16}6-8[8:1]/5-8[8:1],,,,6p1[8:1]/5^2[8:1],,,,,,,,3x/8x,,8-2-7-3[8:3]/3,,
{16},,4,,4h[4:1],,,,,,,,2b/5b,,,,
{16}3qq8[2:1],,4,,5,,,,7,,7-4[8:1],,,,1,,
{16}1-4[8:1],,,,7-3b[8:1],,,,7v5[8:1]/3v1[8:1],,,,,,,,
{16}3-1[8:1]/4-1[8:1],,,,3q8[8:1]/4^7[8:1],,,,,,,,6x/1x,,1s5[4:1]/6,,
{16},,4,,6,,8,,1x-6[8:1]/5x-2[8:1],,,,1b/5b,,,,
{16}3>7[4:1],,,,7>3[4:1],,,,4,,4-1[8:1],,,,5,,
{16}5-8[8:1],,,,2,,2v3-5[4:1],,,,1,,8,,7,,
{16}6x/5x,,45,,E7,,,,46,,35,,E8,,,,
{16}74,,35,,E1,,,,84,,52,,E2,,,,
{16}3-5[8:1],,3,,6-2[8:1],,,,3-5[8:1],,3,,7-1[8:1],,,,
{16}3-5[8:1],,3,,2-6[8:1],,,,3,,3,,1b/7b,,,,
{16}3x/4x,,54,,E3,,,,35,,64,,E2,,,,
{16}25,,64,,E1,,,,15,,47,,E8,,,,
{16}4qq2[8:1],,4pp6[8:1],,4z8b[4:1],,,,,,,,,,,,
{16}17,,1-5[8:1]/7,,26,,1bp1[3:1]*q1[3:1]/7,,,,,,,,,,
{16}7x-2-7b[2:3],,,,3,,,,3,,,,3,,,,
{16}3,,,,3,,,,3,,,,3,,,,
{16}3-6-3[2:3],,,,7,,,,7,,,,7,,,,
{16}7,,,,7,,,,7,,,,7,,,,
{16}7-2-7b[2:3],,,,3,,,,3,,,,3,,,,
{16}3,,,,3,,,,3,,,,3,,,,
{16}3-6-3[2:3],,,,7,,,,7,,,,7,,,,
{16}7,,,,7,,,,7,,,,7,,,,
{16}7h[4:1],,,,6h[4:1],,,,5h[4:1],,,,4h[4:1],,,,
{16}3h[4:1],,,,2h[4:1],,,,1-5b[8:1],,,,18,,,,
{16}26,,,,3,5,3,5,2,6,2,6,1,7,1,7,
{16}8b^5[8:1],,2b^5[8:1],,8xb,,2xb,,,,,,7,7,3,,
{16}2h[8:1],,4,3h[8:1],,5,4^2[8:1],,,,7,6,5,,,,
{16}3,4,3h[8:1],,1,,6,5,6h[8:1],,8,,1,7,1,7,
{16}2,4,3,5,,,8,1,7,5,6,4,,,1,8,
{16}2h[16:3],,,4h[16:3],,,6h[16:3],,,8h[16:3],,,1,,27,,
{16}3-1[8:1]*-8[8:1]/6,,45,,,,,,7-4-6[4:1],,18,,,,,,
{16}2h[8:1],,5h[8:1],,8h[8:1],,3h[8:1],,2h[8:1],,7h[8:1],,4h[8:1],,1h[8:1],,
{16}5,,5,1,5,,5,8,5,,5,7,5,,5,6,
{16}5x,,4x/5,,3x/4,,2x^7[8:1]/3,,,,4xb,,4xbqq3[2:1],,,,
{16}4h[2:1],,,,,,,,,,,,5pp6[2:1],,,,
{16}5h[2:1],,,,,,,,,,,,4qq3[2:1],,,,
{16}4h[2:1],,,,,,,,,,,,8^5[8:1]/4^1[8:1],,,,
{16}8bv3[8:1]/4b-7[8:1],,,,,,,,,,{32}D2,A1,{16},,,,,
{16}3-1[8:1]/4-1[8:1],,,,3V58[8:1]/4^7[8:1],,,,,,,,6x/1x,,1-7-2-6[8:3]/6,,
{16},,5,,5h[4:1],,,,,,,,7b/4b,,,,
{16}6pp1[2:1],,5,,4,,,,2,,2-5[8:1],,,,8,,
{16}8-5[8:1],,,,2-6b[8:1],,,,2v4[8:1]/6v8[8:1],,,,,,,,
{16}6-8[8:1]/5-8[8:1],,,,6V41[8:1]/5^2[8:1],,,,,,,,3x/8x,,8z4[4:1]/3,,
{16},,5,,3,,1,,8x-3[8:1]/4x-7[8:1],,,,8b/4b,,,,
{16}6<2[4:1],,,,2<6[4:1],,,,5,,5-8[8:1],,,,4,,
{16}4-1[8:1],,,,7,,7v6-4[4:1],,,,8,,1,,2,,
{16}3x/5x,,46,,2,,,,35,,47,,1,,,,
{16}25,,47,,8,,,,25,,48,,7,,,,
{16}6-4[8:1],,6,,3-7[8:1],,,,6-4[8:1],,6,,2-8[8:1],,,,
{16}6-4[8:1],,6,,7-3[8:1],,,,6,,6,,8b/2b,,,,
{16}6x/4x,,53,,7,,,,64,,52,,8,,,,
{16}74,,52,,1,,,,74,,51,,2,,,,
{16}58,,75,,65,,4/5-1[8:1],,35,,2/5bqq4[4:1]*pp6[4:1],,,,,,
{16},,,,5xs1b[8:1],,,,,,,,,,,,
{16},,,,,,,,,,,,,,,,
E
