&title=Sephirot
&artist=SHIKI
&first=0
&lv_5=14
&des_5=JH
&inote_5=
(154){4},,,,{1}5h[4:7]/3-7-1-4-8[2:3],
,1h[4:7]/6-2-5-8-4[2:3],
,{8}2/4,
2h[16:3],{16},3h[16:3],{8},{16}4h[16:3],{8},{16}5,{8},6,
5/7,7h[16:3],{16},6h[16:3],{8},{16}5h[16:3],{8},{16}4,{8},3,
2/4,2h[16:3],{16},4h[16:3],{8},{16}5h[16:3],{8},{16}7,{8},8,
{1}1>5s1[16:9]/8<4z8[16:9],
{4}8bx/1bx-5[8:1],{8}7,7h[8:3],,5,{4}5-1[8:1],
4/5qq2[8:3],8,8,{8}8,1/7,
{4}2/6-3[8:1],1h[4:1],{8}4-8[8:1],1,2,3,
{16}7/4>1[8:1],{8},{16}6pp4[8:3],{8},6,{2}2h[4:1],
{4}5/1>4[8:1],{8}6,6h[8:3],,5,5<8[8:1],4,
{16}3,{8},{16}2,2h[4:1],{8},{16}4,{8}4,3/5qq1[8:3],,6,
7h[2:1],{4},{24}A2,A3,A4,{4}A5,{8}4-8[16:3],3,
2h[2:1],{4},{24}A7,A6,A5,{4}A4,{8}2/5,4/6,
{4}1b/8b-4[8:1],{8}2,2h[8:3],,4,{4}4-1[8:1],
5/4pp7[8:3],1,1,{8}1,8/2,
{4}7/3-6[8:1],8h[4:1],{8}5p1[8:1],8,7,6,
{16}2/5<8[8:1],{8},{16}3qq5[8:3],{8},3,{2}7h[4:1],
{4}4/8-5[8:1],{8}3,3h[8:3],,4,4-1[8:1],5,
{16}6,{8},{16}7,7h[4:1],{8},{16}5,{8}5,6/4pp8[8:3],,3/4,
2h[2:1],{4},{24}7x,6x,5x,{4}4x,{8}5-1[16:3],6,
5/7h[2:1],{4},{24}2x,3x,4x,{4}5xw1[8:1],5,
{8}3b/7b,6,{16}3h[16:3],4,,2h[8:1],,1h[16:3],{8},8,1/7,
2/6,4,{16}8,2,,3h[8:1],,4,{24},2,5,{8}2,6,
4/7,3,{16}6h[16:3],5,,7h[8:1],,8h[16:3],{8},1>4[8:1],1,
{4}1b<6[8:1],1bw5[8:1],1b,{8}2b/8b,4/5,
2x/7x,3,{16}6h[16:3],5,,8h[8:1],,4h[16:3],{8},2,4/5,
3/7,5,{16}1,7,,6h[8:1],,5,{24},7,4,{8}7,3,
2/8,6,{16}3h[16:3],4,,7h[8:1],,8,{24},1,6,{8}1>7[8:3],7,
{2}1x/8xh[8:5],{16}1,2,3,4,1,8,7,6,
2b,5,4,5,1,6,5,6,2,5,4,7,{8}1-5[8:1],2/8,
1h[4:1],{4},{16}6,5,7,4,5,4,{8}8-4[8:1],1/7,
8h[4:1],{4},{16}3,4,{8}2,4/7,{16}1/8,1/8,,7/8>7[16:7],
{8},8/6h[8:5],{2},{16}1,2,3,4,
7x,5,6,5,8,4,5,4,1,3,4,3,{8}8,1/6,
{16}2,4,3,4,1,5,4,5,8,6,5,6,{8}1s5[4:1],2/8,
1h[4:1],{4},{16}6,5,{8}7,1/8,{16}2/4,2/4,,4qq1[16:7]/5pp8[16:7],
{8},4x/5x,{2},{4}2b/7b,
{16}2,5,3,4,1,6,3,4,2,7,3,4,{8}1,2/8,
{16}7,4,6,5,8,3,6,5,7,2,6,5,{8}8<3[4:1],1/7,
8/6h[4:1],{4},{16}1,8,{8}1,7,{16}5/6,5/6,,5/4q5<3[8:5],
{8},4/5h[4:3],{4},,,{16}6,
5,7,4,5,3,8,2,6,5,7,4,{8}5,2/7,
{16}3,4,2,5,4,6,1,7,{8}3,2/1,8/7,5/6,
{16}3x,4,2,5,4,6,3,7,1x,8,2,7,3,4,2,5,
1x,6,2,7,3,8,4,1,5x,6,7,8,1x/5x,2/6,3/7,4/8,
1b/5bh[16:13],{4},,,{16}8,,,,7,
,,,6,{48},,,,,,,5,{6},{24}4,{48},,,,,,,3,,,,,,,,{16}2,
{12},{24}1,{12},{24}8,{12},{24}7,{12},6,5,{48}4,{24},{48}3,{24},{16}2,1,
{24}8,7,6,5,4,3,{32}2,1,8,7,{48}6,5,4,3,2,1,{2}8h[2:1],
{1}Cf,
{4},,,{8}E4,E5,
E6,{2},{8}E7/B6,,E8,
{4}E3/B3,{8}E2,B5/E6,,B4/E4,,{16}8,1,
{4}7h[8:3],{8}5,4h[8:3],,2,1s5[4:1],8,
1b/7,{4},{16}6,6,5xh[8:1]/7xh[8:1],{8},{16}4xh[8:1]/5xh[8:1],{8},4x/2x,
{16}1,5,1,5,2b,3,4,5,8,4,8,4,7b,6,5,4,
2x,5,2,5,4x,7,4,7,1x,8,4,5,2x,7,4,5,
3x,2,1,8,7,6,5,4,{32}3/E8,E7,E6,E5,E4,E3,E2,E1,{4}E8/Cf,
{8}1b/5x,{16}2,4,3,8,5,6,{8}1-5[8:1],6-1[8:1],1,6,
2,{16}8,5,6,1,5,3,{8}7-3[8:1],4,7/3,2,
{24}1x,2,3,7x,6,5,1x,2,3,7x,6,5,2x,3,4,8x,7,6,2x,3,4,8x,7,6,
{8}1x/5x,{16}2,4,1,6,5,7,{8}3-6[8:1],8-4[8:1],3,8,
1b,{16}2,2h[16:3],{8}4,{16}7,7h[16:3],{8}5,{16}1,1h[16:3],{8}3,{16}8,8,
1,2,3,4,5/8,7,6,5,{8}4/2,4/5,5/7,3/6,
4/1h[8:3],{4},{24}7x,6,5,8x,7,6,2x,3,4,1x,2,3,7x,6,5,
{8}8xh[4:1]/4xh[4:1],{4},{16}2/6b,2/6b,{48}2-7[12:1]/6b-3b[12:1],{4},{48}E3/E7,{24}Cf,{6},{16}1x,
5,2,4,3,8,{8}1h[8:1],{16}7,7,8,6,6,4,8,8,
2,2,1,3,3,5,1,1,7,7,2,2,{8}8,2/6,
{16}5x,4,6,3,4,2,{8}8h[8:1],{16}1,1,8,3,3,4,2,2,
8,8,1,6,6,5,7,7,1,1,8,8,{8}2,4/6,
{16}1b,4,3,6,5,8,{8}2h[8:1],{16}1,1,2,5,5,4,7,7,
8,8,7,4,4,5,2,2,8,8,4,4,{8}6,1/5,
{16}7x,3,5,1,6,4,{8}8h[8:1],{16}2,2,8,5,5,1,3,3,
8,7,6,5/1,2,3,4/7,6,5,4/2,3,4,{8}1b-6[12:1]/5-2[12:1],1b/5,
E
