&title=[A]ddiction
&artist=GigaReol×EVO+
&first=1.55
&des=
&des_5=刻于晴空玉衡星
&lv_5=14
&inote_5=(164){4},,,,2b/7b,
{8}7/5,7,7/4,7,{4}3/7h[4:1],
{8}2,6,4-8[8:1],4,{2}5-1[8:1],
{4}2/7,{8}2/4,2,2/5,2,{4}6/2h[4:1],
{8}7,3,6,2,{4}5,5v8[8:1]/1v4[8:1],
{16}1b/5b,Cf,{8},6,5h[4:1],,3,4,5,
{4}4h[4:1],{8}5,6,,7,8,2,
{4}1h[4:1],{8}8,7,,2pp4[4:1],{4}2,
,8xh[4:1],,2v5[8:1]/6v1[8:1],
{16}2b/6b,Cf,{8},8,7,,4,3,6,
{4}7h[4:1],{8}2,1h[4:1],,8,7,6,
4h[8:1],2h[8:1],8h[8:1],6h[4:1],,4,3,2,
7/8,7/8,1/2,1/2,{4}1-5[8:1]/8-4[8:1],8/1,
{8}3b/6b,7,8/1,2,1/3,8,2-4b[8:1],1-7[8:1],
2-6b[8:1],1-5[8:1],2,1,,4,7,2,
8/1,2,3/5,6,7/4,4,6-8[8:1],5-3b[8:1],
6-2[8:1],5-1b[8:1],6,5,,8,2,7,
3,8<1[4:1],2,4h[4:1],{4},{8}7,2,
6,1>8b[4:1],7,5h[4:1],{4},{8}2,3,
4/8,8,3/7,3,2/6,6,1/5,1,
{4}1>4[8:1],{8}1,6-1[8:1],,3,{4}2-6[8:1]*-5[8:1],
{32}2b,B2,Cf,B6,{4},{8},2,8,1-5[8:1],7,
{4}1V75[4:1],5V31[4:1],1,5w1[8:1],
{8}5,{4},{8}6,3,5,4-8[8:1],6,
{4}4<8[4:1],8>4[4:1],4,8w4[8:1],
8,6/B4,6/B3,7/B2,
7/B1,3/B5,3/B6,2/B7,
B8/2-7[8:1],2/6-3[8:1],6/1-5[8:1],1/7<2[4:1],
{2}7,{32}8x,7x,6x,5x,4x,3x,2x,1x,{4}8x-5[8:1]*V26[8:1],
{16}8b,Cf,{8},3/4,2,5/6,7,3/5,1,
6/4,8,{4}2/7,{32}1x,2x,3x,4x,5x,6x,7x,8x,{4}1x-5[8:1]/5x-1[8:1],
{16}5b/1b,Cf,{8},7/8,6,1/2,3,7/1,5,
2/8,4,{4}6/3,{32}8x,7x,6x,5x,4x,3x,2x,1x,{4}8x-5[8:1]*>5[8:1],
{16}8b,B7f,{8},6/4,3,4/7-3[8:1],6,{4}7/1-6[8:1]*-4[8:1],
{16}1b,B2f,{8},3/6,7,6/2,3,{4}8<5[8:1]/1>4[8:1],
{16}8b/1b,D7f/D3f,{8},7-3[8:1],7,1-5[8:1],1,8-4[8:1],8,
{16}2-6[8:1],{8},{16}2,{4},{32}8x,1x,2x,3x,4x,5x,6x,7x,{4}8x-5b[8:1]*V26b[8:1],
{16}8b,Cf,{8},3/4,2,5/6,7,3/5,1,
6/4,8,{4}2/7,{32}1x,8x,7x,6x,5x,4x,3x,2x,{4}1x-5b[8:1]/5x-1b[8:1],
{16}5b/1b,Cf,{8},7/8,6,1/2,3,7/1,5,
2/8,4,{4}6/3,{32}8x,1x,2x,3x,4x,5x,6x,7x,{4}8x-5b[16:1]*>5b[16:1],
{16}8b,B7f,{8},6/4,3,4/7-3b[8:1],6,{4}7/1-6b[8:1]*-4b[8:1],
{16}1b,B2f,{8},6/3,2,3/7,6,{4}8<5b[8:1]/1>4b[8:1],
{16}8b/1b,D7f/D3f,{8},2-6[8:1],2,8-4[8:1],8,1-5[8:1],1,
7-3[8:1],7,4-8[8:1],4,5-1[8:1],5,3w7b[8:1],3,
{4}3bx,4/5h[8:1],3/5h[8:1],4/5h[8:1],
3xh[8:1]/5h[8:1],{8}5h[8:1],4xh[8:1],{4}5h[8:1],5h[8:1]/2x>4[8:1],
2x/5,5/4h[8:1],6/4h[8:1],5/4h[8:1],
6/4h[8:1],5/4h[8:1],6/4h[8:1],4h[8:1]/7<5[8:1],
7bx/4,1>6[4:1],{8},8,8-4[8:1],1,
2-5[8:1],1,7<4[8:1],8,3v8[8:1],2,{4},{8},{16}2,
1,{8}2-4[8:1],1,7-5[8:1],8,3-1[8:1],4,
6-8[8:1],5,3>1[8:1],5pp6[8:1],{2}5qq4[8:1],
{4}7b/1b>6[4:1],1h[4:1],{8},7,7-4[8:1],8,
7/1-5[8:1],2,1/8-6[8:1],7,8/2-6[8:1],1-4[8:1],2,1,
7,8,5<8[8:1],3,{4}1,2h[32:33],
{8}6,6,7,7,8,8,{16}1x-5[8:1],{32}3x,4x,5x,6x,7x,8x,
{4}1bx,{8}7-3[8:1],8,{4}7/1-6[8:1]*-4[8:1],1,
{8}5,6,2-6[8:1],1,{4}2/8-3[8:1]*-5[8:1],8,
4/6,{8}3-7[8:1],4,{4}3/5-2[8:1]*-8[8:1],5,
{8}B1,E3,B7,E6,,4,7-3[8:1]*-4[8:1],2,
{4}7b,{8}B2/B3,B7/B6,{2}1bh[4:1],
{8}6bx/4bx,3,4/6,7,{16}1b,1b,1b,1b,{4}1b,
5bxh[8:1]/3bxh[8:1],4h[8:1]/6h[8:1],{8},7h[8:3],5,5,
{4}4>1[8:1],{8}4,7,{4}7p3[8:1],7>6[4:1],
{2},{8}7,1,8-4[8:1],2,
{4}8V24[4:1],4V68[4:1],8,4w8[8:1],
{8}4,{4},{8}3,6,4,5-1[8:1],3,
{4}5>1[4:1],1<5[4:1],5,1w5[8:1],
1,3/B5,3/B6,2/B7,
2/B8,6/B4,6/B3,7/B2,
B1/7-2[8:1],7/3-6[8:1],3/8-4[8:1],8/2>7[4:1],
{2}2,{32}8x,7x,6x,5x,4x,3x,2x,1x,{4}8x-5[8:1]*V26[8:1],
{16}8b,Cf,{8},3/7-4[8:1],6,7/3-8[8:1],2,3/7-4[8:1],6,
7/3v8[8:1],2,{4}3/7,{32}1x,2x,3x,4x,5x,6x,7x,8x,{4}1x-5[8:1]/5x-1[8:1],
{16}5b/1b,Cf,{8},6/2-5[8:1],3,2/6-1[8:1],7,6/2-5[8:1],3,
2/6v1[8:1],7,{4}6/2,{32}8x,7x,6x,5x,4x,3x,2x,1x,{4}8x-5[8:1]*>5[8:1],
{16}8b,B7f,{8},6/4-1[8:1],3,4/7-3[8:1],6,{4}7/1-6[8:1]*-4[8:1],
{16}1b,B2f,{8},3/6-2[8:1],7,6/2,3,{4}1>4[8:1]/8<5[8:1],
{16}8b/1b,D7f/D3f,{8},2-6[8:1],8-4[8:1],2,8,1-5[8:1],8,
{16}1,{8},{16}6,{4},{32}8x,1x,2x,3x,4x,5x,6x,7x,{4}8x-5b[8:1]*V26b[8:1],
{16}8b,Cf,{8},3/7-4[8:1],6,7/3-8[8:1],2,3/7-4[8:1],6,
7/3v8[8:1],2,{4}3/7,{32}1x,8x,7x,6x,5x,4x,3x,2x,{4}1x-5b[8:1]/5x-1b[8:1],
{16}5b/1b,Cf,{8},6/2-5[8:1],3,2/6-1[8:1],7,6/2-5[8:1],3,
2/6v1[8:1],7,{4}6/2,{32}8x,1x,2x,3x,4x,5x,6x,7x,{4}8x>5b[8:1]*-5b[8:1],
{16}8b,B7f,{8},6/4-1[8:1],3,4/7-3b[8:1],6,{4}7/1-6b[8:1]*-4b[8:1],
{16}1b,B2f,{8},6/3-7[8:1],2,3/7,6,{4}1>4b[8:1]/8<5b[8:1],
{16}8b/1b,D7f/D3f,{8},7-3[8:1],1-5[8:1],7,1,8-4[8:1],2-6[8:1],
8,2,5-1[8:1],3-7[8:1],5,3,4w8b[8:1],4,
{4}4bx,{8}B1,7xh[8:3],{4}B2,{8}B3,6xh[8:3],
{4}B4,B1,7xh[2:1]/B2,B3,
B4,{8}B8,2xh[8:3],{4}B7,{8}B6,3xh[8:3],
{4}B5,B8,2xh[4:1]/B7,B6,
1bx/B5,{8}B1,7xh[8:3],{4}B2,{8}B3,6xh[8:3],
{4}B4,B1,7xh[2:1]/B2,B3,
{8}B4,{4},{8}2x/8x,{4}2xv5[8:1]/8xv5[8:1],2/8,
{8}8bh[32:29],2,2,2,3,3,{32}3x-7[8:1],4x,5x,6x,{16}7x,{32}1x,2x,
{8}3bx,{16}6,5,{8}4x,{16}2,1,2,1,3,8,3x,8,{8}4,
,{16}2,3,{8}4x,{16}7,8,7,8,6,1,6x,1,{8}5,
,{16}5,6,{8}7x,{16}3,4,3,4,2,5,2x,5,1,6,
1,6,8,7,1x,6,2,5,3,4,2,5,1x,6,8,7,
{8}8b,1h[4:1],8x,8,7/5,6/4,3x/5,2/4,
{16}3,4,{8}3,5x-7[8:1],4,{4}5,{8}8x/2,1/7,
{16}8-4[8:1],1,7,2,{4}8,{16}2-5[8:1],1,3,8,{4}2,
{12}7,5,6,2,4,3,8,6,7,1,3,2,
{2}8b,{8}3,5,4-8[8:1],6,
{4}4V68[4:1],8V24[4:1],4,8w4[8:1],
{8}8,{4},{8}7,2,8,1-5[8:1],7,
{4}1<5[4:1],5>1[4:1],1,5w1[8:1],
5,7/B1,7/B2,6/B3,
6/B4,2/B8,2/B7,3/B6,
B5/3-6[8:1],3/7-2[8:1],7/4-8[8:1],4/6<3[4:1],
{1}6/Ch[1:1],
{4},{8},{32}4x,3x,2x,1x,8x,7x,6x,5x,4x,3x,2x,1x,{4}8x-5[8:1]*V26[8:1],
{16}8b,Cf,{8},7-5[8:1],5-8[8:1],2-6b[8:1],1-5[8:1],2V48b[8:1],1,
2-6[8:1]*-5[8:1],1,{4}2,{32}1x,2x,3x,4x,5x,6x,7x,8x,{4}1x-5[8:1]/5x-1[8:1],
{16}5b/1b,Cf,{8},2-4b[8:1],4-1b[8:1],7-3[8:1],8-4b[8:1],7V51[8:1],8,
7-3[8:1]*-4[8:1],8,{4}7,{32}8x,7x,6x,5x,4x,3x,2x,1x,{4}8x-5[8:1]*>5[8:1],
{16}8b,B7f,{8},6/4,3,4/7-3[8:1],6,{4}7/1-6[8:1]*-4[8:1],
{16}1b,B2f,{8},3/6-2[8:1],7,6/2,3,{4}8<5[8:1]/1>4[8:1],
{16}8b/1b,D7f/D3f,{8},7-3[8:1],8,1-5[8:1],2,8-4[8:1],7,
{16}2-6[8:1],{8},{16}2,{4},{32}8x,1x,2x,3x,4x,5x,6x,7x,{4}8x-5b[8:1]*V26b[8:1],
{16}8b,Cf,{8},7-5[8:1],5-8[8:1],2-6[8:1],1-5[8:1],2V48[8:1],1,
2-6[8:1]*-5[8:1],1,{4}2,{32}1x,8x,7x,6x,5x,4x,3x,2x,{4}1x-5b[8:1]/5x-1b[8:1],
{16}5b/1b,Cf,{8},2-4[8:1],4-1[8:1],7-3[8:1],8-4[8:1],7V51[8:1],8,
7-3[8:1]*-4[8:1],8,{4}7,{32}8x,1x,2x,3x,4x,5x,6x,7x,{4}8x-5b[16:1]*>5b[16:1],
{16}8b,B7f,{8},6/4,3,4/7-3b[8:1],6,{4}7/1-6b[8:1]*-4b[8:1],
{16}1b,B2f,{8},6/3-7[8:1],2,3/7,6,{4}8<5b[8:1]/1>4b[8:1],
{16}8b/1b,D7f/D3f,{8},7-3[8:1],8,1-5[8:1],8,8-4[8:1],1,
2-6[8:1],1,5-1[8:1],4,3-7[8:1],4,4w8b[8:1],4,
{1}4bxpp4[4:1]*qq4[4:1],
