&title=踊れオーケストラ
&artist=Yasuhiro
&first=0
&des=踊れmaimaiチャート
&des_5=踊れmaimaiチャート
&lv_5=13
&inote_5=(180){1},
{2}2-5[8:1]/8,7<4[8:1],1-4[8:1]*-5[8:1],8-3[8:1]*-5[8:1],{4}17,28,47,15,{8}46,46,{4}4/6h[4:1],2x,2x,
1b-5[8:1]/7b,8b-6[8:1],4-2[8:1],4/8h[8:1],7,{8}35,{4}3-1-5[4:1]/5,6h[8:1],7<5-1[4:1],2h[8:1],3-8-4[4:1],{8}5,6,7,8x-5[8:1],,1,2x-5[8:1],,7,{4}7,2b/8b-4[8:1],1b-3[8:1],5-7[8:1],1h[8:1]/5,2,{8}46,{4}4/6-8-4[4:1],{8}3,3,,2,2,7,1,6,6,4,4>8[4:1],,8<5[4:1],{4}8,,,
3b/7b-3[8:1],2b-8[8:1],6-4[8:1],1h[8:1]/6,{8}2-5[8:1],2,8,{4}7-4-8[4:1],2h[8:1],1-4-8[4:1],6h[8:1],7-5-1[4:1],{8}1,2,3,4x-1[8:1],,8,7x<4[8:1],,1,{4}1,2b-6[8:1]/6b,7b-1[8:1],3-5[8:1],3/8h[8:1],{8}7-4[8:1],7,1,{4}2-5-1[4:1],{8}8,7,6,3,3,5,4,7,7,1,1>5[4:1],,5<8[4:1],{4}5,,,
{2}3-1[8:1]/5h[4:1],7h[4:1]/8-4[8:1],{8}7,7,3-5[8:1],6,,,17,,{2}1-5[8:1]/2h[4:1],4h[4:1]/6-8[8:1],{8}3,3,{4}5,1-4[8:1]/7-5[8:1],17,28,28,{8}47,6,35,,27,2h[4:1]/7<4p8[3:1],,7,,,,{8},28,3,45,,17,6,45,,37,3>8-4[3:1]/7<4[6:1],,37,{2},
{4}1/7<4[8:1],2,2-5[8:1]/8,7,{8}6,6,{4}4,3-1[8:1]/5-8[8:1],,5,5,{8}5,4,3,2-8[8:1],,7,{4}7-3[8:1],4-6[8:1],,7,17,{8}25,3,46,,37,3>8p4[3:1]/7h[4:1],,3,{2},{8}46,7,18,,35,2,18,7hx[4:1],,E3,E4,E6,{2}E7,
{8}25,,47,,25,2<8-4<6[4:3]/5,,26,{2},7hx[4:1],{8}16,,38,,16,1/6>4-8>2[4:3],,26,{2},3hx[4:1],{4}7-5[8:1],17,{8}2-5[8:1],8,{4}8,6<1[8:1],46,{8}3-1[8:1],5,5,,7,46,35,,2,35,4h[8:3]/6,,,8,,27,{2},
{24}1bqq5[2:1]/5b,2x/6x,3x/7x,{8}4hx[8:1]/8x,,3,{2}3h[4:1],{24}4/8pp4[2:1],3x/7x,2x/6x,{8}1x/5hx[8:1],,6,{2}6h[4:1],{4}1>4[8:1],{24}6,7x,8x,{8},7x<4[8:1],,{24}3,2x,1x,{8},{4}2-5[8:1],8<1[8:3],8,,{16}7h[16:3],,,5h[16:3],,,{8}4,{4}4-7[8:1]*-8[8:1],4x,{16}2h[16:3],,,4h[16:3],,,{8}5,{4}5-1[8:1]*-2[8:1],5x,{8}47,6,5,6,25,3,4,3,{4}4b,2b/5b,3b/6b,4b/7b,
{24}4b/8bpp4[2:1],3x/7x,2x/6x,{8}1x/5hx[8:1],,6,{2}6h[4:1],{24}1qq5[2:1]/5,2x/6x,3x/7x,{8}4x/8x,{4}3h[8:1],2h[8:1],1h[8:1],18,{8}25,36,{4}4-1[8:1]/7,4/7<8p7[4:3],{1}3h[2:1]/7,{8}2-4[8:1],,8,7,6-1[8:1],,4-2[8:1]/6,,4/7-5[8:1],,1,2,3,,36,,25,3,4,3,47,6,5,6,E3,E4,E5,E6,{2}E7,
{4}1b-3[8:1],1/7<4[4:1],4>1[4:1]/7,1h[8:1],4x-1[8:1],{8}7,{4}7,2h[8:1]/8p6[8:3],8,2q4[8:3],2,{8}8,8,,47,{16}6,5,{8}6,4/7h[4:1],,1,{4}1,8-6[8:1],2>5[4:1]/8,2/5<8[4:1],8h[8:1],{8}5x-8[8:1],5x,3,2,,1,1,,7<4[8:1],7,1-4[8:1],1,8-5[8:1],8,2q4[8:3],2,,7,7,,E6,E3,E1,E7,
{4}4b-8[8:1],4/6<1[4:1],1x>4[4:1]/6,4h[8:1],{8}1-5[8:1],8,7,{4}6,1h[8:1]/7p5[8:3],7,3p1[8:3],37,{8},8,,25,{16}3,4,{8}3,2h[4:1]/5,,8,{4}8,3/5-1[8:1],3>8[4:1]/5,3/8x<5[4:1],5h[8:1],{8}8-4[8:1],4-8[8:1],8,2,,3,4,5,6<1[8:1],6,3-8[8:1],3,5-8[8:1],5,4qq8[2:1],4,,7,7,,{2},
{4}7<4[8:1],17,2-5[8:1],28,{8}6<1[8:1],5,4,,{4}3-1[8:1]/5-8[8:1],35,2>5[8:1],28,7-4[8:1],17,{8}3>8[8:1],4,{4}5,4-1[8:1]/6-1[8:1],46,3b/5b,35,{8}4b/7b,36,25,,3b/6b,{4}3/6qq8[8:3],36,{8}1,1,,1b/7b,26,35,,2b/8b,37,4b/6b,4h[4:1]/6,,6,5,4,3pp8[1:2],,3h[1:2],E
