&title=みつぼしパレード
&artist=アンジュ・カトリーナ、戌亥とこ、リゼ・ヘルエスタ
&first=0
&des=うすしお
&lv_4=8+
&inote_4=(122){4},,,,1h[8:3]/7h[8:3],,,,2h[8:3]/8h[8:3],,,,
1h[8:3]/3h[8:3],,,{8},2x,{4},,,,
1,1,1,,2,2,2,,3,3,3,,4-1[4:1],,,,
7,7,5,,2,2,4,,6,6,8,,C/B2/B7,,,,
6,6,5,5,4,4,3,3,2,2,1,1,8-5[4:1],,,,
3s7[4:1],,,,6>3[4:1],,,,1-4[4:1]*-6[4:1],,,,C/B2/B7,,,,
3h[2:1],4,5h[2:1],4,3h[2:1],,,,7h[2:1],8,1h[2:1],8,7h[2:1],8,1,,
2>5[4:1],,,,5q2[4:1]/6<1[4:1],,,,
E3,E4,E5,E6,E7,E8,E1,,Ch[2:3],,,,,,,,
4-1[4:1]/5-8[4:1],,,,17,28,17,28,3,4,5,{8}6,{4}6x>8[2:1],,,,
3h[4:1],4h[4:1],5,,6h[4:1],5h[4:1],4,,B2,,B4/B5,,B7/E8/B8,,,{8},{4}4x/5x,
4>1[4:1]/5<8[4:1],,,,82,71,82,71,6,5,4,{8}3,{4}3x<1[2:1],,,,
2h[4:1],1h[4:1],8,,7h[4:1],8h[4:1],1,,B2,,B4/B5,,B7/E8/B8,,
{8},{4}2x/6x,3x/7x,4x>1[4:3]/8x<5[4:3],,,,,,,,
3h[4:1],{8}1,{4}1x,7x/8x,5x>2[4:1]/6xp1[4:1],,,,{8},
{4}2q6[4:1],,,7b/8b,,,18,18,7p3[4:1],,,2b/1b,,,81,81,
27,{8}3,3,5,,6,6,4,,2,2,8,,1,,
{1}1-5[4:3],,5v2[4:3]*v8[4:3],,3>6[4:3],,5w1[4:3],{4},,,4x/5x,
4-1[4:1]/5-8[4:1],,,,17,28,17,28,34,56,78,{8}12,{4}1x<4[2:1]/2x,,,,
2h[4:1],1h[4:1],8h[4:1],7h[4:1],8h[4:1],1h[4:1],2,,
B2,,B4/B5,,B7/E8/B8,,,{8},{4}4x/5x,
5<8[4:1]/4>1[4:1],,,,82,71,82,71,65,43,21,{8}87,{4}8x>5[2:1]/7x,,,,
6h[4:1],5h[4:1],4h[4:1],3h[4:1],4h[4:1],5h[4:1],6,,
B2,,B4/B5,,B7/E8/B8,,{8},{4}2x/7x,3x/6x,4x-1[4:3]b/5x-8[4:3],,,,,,{8},2,2,8b,
,7,7,1b,,3,3,1b,(115){4},,(95)3x/7x,(75)2x/8x,1xw5[4:3],,,,E
