&title=弦楽少女は諦めを知らずに
&artist=海茶 feat. 琴葉葵
&first=-0.2
&des=ZJU Chart Team ”Mr.D“
&des_5=
&lv_5=13+
&inote_5=(146){4},,,8<1[2:1],
,,Cf,{16}8,4,8,4,
,7h[4:1],,3h[16:3],,,,,{4}1h[8:1]/2h[8:1],{16}7h[8:5]/8h[8:1],,,2,
,3,,4h[16:3],,,,,{4}4h[8:1]/5h[8:1],{16}3,6,3,6,
,2h[4:1],,5h[16:3],,,,,{4}8h[8:1]/7h[8:1],7-3[8:1],
7/8-4[8:1],8/1-5[8:1],1/Cf/2q4[2:1],8h[8:1],
{8}8h[8:1],,,6,5q8[2:1],4,{4}3h[8:1],
{8}3h[8:1],,,1/2,1/2pp1[2:1],1/2,{4}8h[8:1],
{8}7h[8:1],,,6,5-8[8:1],4,{4}5/3-6[8:1],
3/7-2[8:1],7/4-1[8:1],4/8p6[2:1],2h[8:1],
{8}2h[8:1],,,3,4p1[2:1],5,{4}6h[8:1],
{8}6h[8:1],,,7/8,8/7qq8[2:1],7/8,{4}1h[8:1],
2h[8:1],{8}3,4,5,6,{4}7-2[8:1],
7/3-6[8:1],3/8-5[8:1],2h[4:1],{16}6xh[8:3],D3,D4,D5,
D6,D7,D8,D1,7xh[8:1]/2xq4[8:3],,,8h[8:1],,,{8}8h[8:1],{16},D8,D7,D6,
D5,D4,D3,D2,3xh[8:1]/1x-6[8:1],,,2h[8:1],,,{8}2h[8:1],{16}5xh[4:3]`D3,D4,D5,D6,
D7,D8,D1,D2,D3,D4,D5,D6,D7,D8,D1,D2,{4}2x-5-3[4:1],
{8}5,7-3[8:1],,2,{4}1h[4:1],{16}6h[8:3],D2,D3,D4,
D5,D6,D7,D8,6xh[8:1]/1xq4[8:3],,,7h[8:1],,,{8}8h[8:1],{16},D8,D7,D6,
D5,D4,D3,D2,2xh[8:1]/8x-6[8:1],,,2h[8:1],,,{8}1h[8:1],{16}5xh[8:7],D2,D3,D4,
D5,D6,D7,D8,D1,D2,D3,D4,{4}4xh[4:3],8h[2:1],
{8},,,,,,6,{16}4-8[8:1],5,
{8}3,4,,2>5[8:1],1,2/8,7,{16}4,6h[16:3],
,,{8}3,{16}7,8,{8}7,5/4,4/5,{16},,1,8,
{8}1,7-4[8:1],,1>4[8:1],8qq6[16:3],1,{4}8pp2[16:3],
8w4[8:1],Cf,{8},,7,{16}1-5[8:1],8,
{8}2,1,,3>8[8:1],4,3/5,,7-4-6[16:3],
8,7,{4}1pp8[4:1],7h[8:1],7<4[8:1],
7,2h[8:1]/1h[8:1],5h[8:1]/6h[8:1],8-6[8:1]`1-5[8:1],
8-4[8:1]`1-3[8:1],8p1[16:3],{8},,3,{16}5-1[8:1],4,
{8}6,5,,7<4[8:1],8,7/1,2,{16}5,3h[16:3],
,,{8}6,{16}2,1,{8}2,4/5,5/4,{16},,7,1,
{8}8,2-5[8:1],,8<5[8:1],1pp2[4:1],8,{4}1qq8[4:1],
1w5[8:1],Cf,{8},,2,{16}8-4[8:1],1,
{8}7,8,,6<1[8:1],5,6/4,,2-5-3[16:3],
1,2,{4}8qq1[4:1],2h[8:1],2>5[8:1],
2,8h[8:1]/7h[8:1],1h[8:1]/2h[8:1],5-7[8:1]`4-8[8:1],
5-1[8:1]`4-2[8:1],4<2[4:1],{16},,,,5h[8:1],,,3h[8:1]/6h[8:1],
,,{8}4/7,{4}7h[8:1]/4h[8:1],3h[8:1]/5h[8:1],{16}6h[8:1]/4h[8:1],,,7h[8:1]/5h[8:1],
,,{8}1/8,{4}8h[8:1]/1h[8:1],3h[8:1]/5h[8:1],{16}4h[8:1]/7h[8:1],,,6h[8:1]/3h[8:1],
,,{8}5/2,{4}5h[8:1]/2h[8:1],4h[8:1]/3h[8:1],{16}3h[8:1]/7h[8:1],,,6h[8:1]/2h[8:1],
,,{8}5/1,{16}5h[32:5]/1h[32:5],{32},,,,2x/6x,7x/3x,{4}4xh[8:1]/8xh[8:1],{16}6h[8:1]/2h[8:1],,,3h[8:1]/7h[8:1],
,,{8}4/8,{4}4h[8:1]/8h[8:1],2h[8:1]/6h[8:1],{16}3h[8:1]/7h[8:1],,,8h[8:1]/2h[8:1],
,,{8}1/7,{4}7h[8:1]/1h[8:1],5h[8:1]/3h[8:1],2h[8:1]/8h[8:1],
B5f`B6`A6`B4`A4,1h[8:1]/7h[8:1],A5`B5`B3`A3`B4f,8<5s1[8:5]`1>4z8[8:5],
,,,2h[8:1]/7p6[8:3],
{8}2h[8:1],,,3,4qq1[2:1],5,{4}6h[8:1],
{8}6h[8:1],,,7,8qq4[2:1],1,{4}2h[8:1],
{8}2h[8:1],,,2,3,4,{4}5>2[8:1],
5/8<5[8:1],8/3>8[8:1],3qq5[2:1],6h[8:1],
{8}6h[8:1],,,7,8qq5[2:1],1,{4}2h[8:1],
{8}2h[8:1],,,3,4p2[8:3],5,{4}6h[8:1],
7h[8:1],{8}8,1,2,3,{4}4p8[8:1]`8p4[8:1],
4<8[16:3]`8>4[16:3],4x`8x,{32}B8,C,{16}B4,,,{4}1-3-8-4[2:1],
{8}6,6h[8:1],,,{4}7,7-3-5-8[2:1],
{8}2,2h[8:1],,,{4}1h[8:1],{8}8,7,
6,5h[4:1],,4q5<4[8:7],3,2,{4}1h[8:1],
{8}2,2h[8:3],,,,,{4}1pp5[2:1],
{8}6,6h[8:1],,,{4}7,8pp6[2:1],
{8}4,4h[8:1],,,3,2,1h[8:1],8<4[4:1],
7,6/8-6-4-2-8[8:5],,8,{4}3h[8:1],1h[2:1],
,Cf,{8},,6,{16}4-8[8:1],5,
{8}3,4/2,,2-4-6[8:1],1,8/2,7,{16}4,4,
{8}6h[8:1],3,{24}7,8,7,8,,,{8}6/3,5/4,2,{16}8-3[8:1],1,
{8}7,8<5[8:1],,8,1pp3[16:3],2,1qq8[4:1],8,
1w5[8:1],2,{4}Cf,{8},,7,{16}1-5[8:1],8,
{8}2,1/3,,3>8[8:1],4,3/5,,7-4[8:1],
8,7/1q3[8:3],{4}2,5h[8:1],7<4[8:1],
7/3,1h[8:1]/2h[8:1],8h[8:1]/7h[8:1],4>2[8:1]`5p1[8:1],
4q8[8:1]`5<7[8:1],5>7[4:1],{8},,3,{16}5-1[8:1],4,
{8}6,5/7,,7-5-3[8:1],8,1/7,2,{16}4,4,
{8}3h[8:1],6,{24}2,1,2,1,,,{8}3/6,4/5,7,{16}1-6[8:1],8,
{8}2,1>4[8:1],,1,8qq6[16:3],7,8pp1[4:1],1,
8w4[8:1],7,{4}Cf,{8},,2,{16}8-4[8:1],1,
{8}7,8/6,,6<1[8:1],5,6/4,,2-5[8:1],
1,2/8p6[8:3],{4}7,4h[8:1],2>5[8:1],
2/6,8h[8:1]/7h[8:1],3h[8:1]/4h[8:1],8<6[8:1]`1p5[8:1],
8q4[8:1]`1>3[8:1],1<3[4:1],6,{16}D3`6xh[8:3],D2,D1,D8,
D7,D6,D5,D4,7h[8:1]/3xp2[8:3],,,7h[8:1],,,{8}8h[8:1],{16},D8,D7,D6,
D5,D4,D3,D2,3xh[8:1]/1xp6[8:3],,,3h[8:1],,,{8}2h[8:1],{16},D3,D4,D5,
D6,D7,D8,D1,6xh[8:1]/1x-4[8:1],,,6h[8:1],,,{8}7,{4}8-4[8:1],
{8}3,2-5[8:1],,5,6,7,{16}8xh[8:3]`D4,D3,D2,D1,
D8,D7,D6,D5,7xh[8:1]/3xpp2[8:3],,,7h[8:1],,,{8}8h[8:1],{16},D8,D7,D6,
D5,D4,D3,D2,3xh[8:1]/1x<6[8:1],,,3h[8:1],,,{8}2h[8:1],{16}5xh[2:3],D3,D4,D5,
D6,D7,D8,D1,D2,D3,D4,D5,D6,D7,D8,D1,{4}1bxh[2:1],
,,,8<8-6-4-2-8-5-3-8[4:13],
{1},,,{4},,{32}B1,
C,{16}B5,,,{8}7qq7[2.8767##0.6164],6,
5,4,7/3qq3[2.0548##0.6164],2,1,8,3/7qq7b[1.2329##0.6164],6,
5,4,{4}7/3qq3b[8:3],{2}A7f/A3f,
{4}4/8,7h[8:1]/3h[8:1],6h[8:1]/2h[8:1],{32}5`A1,B1,{16}C,{32},,,,3`A7,
B7,{16}C,{32},,,,8h[4:1]`E3,B3,B4,E5,,,,,,,,,,,,,{8}3,{16}5-1[8:1],4,
{8}6,5b,7-5-3b[8:1],8,1/7>2[8:1],{16}2,2,{8}7-3b[8:1],{16}3,3,
{8}7,{16}2,2,{24}7-1-5[4:1],6,5,4,,,{8}3,3,3>8b[8:1],{16}4,5,
{8}3,6b-8[8:1],5,6,1pp3[16:3],2,1bqq8b[4:1],8,
1bw5[8:1],2,{4}Cf,{8}7h[16:1],7h[16:1],2,{16}8-4b[8:1],1,
{8}7,8b,6,5<8[8:1],4,3b/5,2,1-4b[8:1],
8b,7p5[8:3],{4}6b,4h[8:1],{8}2b>5[8:1],{16}6,6,
{8}2,7,8/7,6/5,4/3,2/1,{16}8bh[8:1]/7bh[8:1],,,1bh[8:1]/2bh[8:1],
,,{8}5b/4b,{4}5b-8[8:1]`4b-1b[8:1],{16},,,,7h[8:1]/2h[8:1],,,1h[8:1]/6h[8:1],
,,{8}6/1,{4}5h[8:1]/4h[8:1],3h[8:1]/8h[8:1],{16}7h[8:1]/5h[8:1],,,6h[8:1]/4h[8:1],
,,{8}5/3,{4}4h[8:1]/2h[8:1],7h[8:1]/1h[8:1],{16}8h[8:1]/3h[8:1],,,6h[8:1]/1h[8:1],
,,{8}3/7,{4}1h[8:1]/5h[8:1],2h[8:1]/6h[8:1],{16}4h[8:1]/8h[8:1],,,3h[8:1]/7h[8:1],
,,{8}6/2,{16}5h[32:5]/1h[32:5],{32},,,,2x/6x,3x/7x,{4}4xh[8:1]/8xh[8:1],{16}8h[8:1]/1h[8:1],,,7h[8:1]/6h[8:1],
,,{8}8/1,{4}2h[8:1]/3h[8:1],4h[8:1]/1h[8:1],{16}2h[8:1]/5h[8:1],,,3h[8:1]/6h[8:1],
,,{8}4/7,{4}5h[8:1]/8h[8:1],6h[8:1]/4h[8:1],7h[8:1]/3h[8:1],
{48}D8`D3,A8`A2,D1`D2,A1f,,,,,,,,,{4}6h[8:1]/2h[8:1],{48}D6`D3,A5`A3,D5`D4,A4f,,,,,,,,,{4}8-5[8:1]`1-4b[8:1],
,1<1-7-5-3-1p5p1[4:9],{1},,{4},,{8}6,
5,{4}4h[4:1],,8h[4:1],
1h[4:1],2h[4:1],3h[4:1],8h[4:1],
7h[4:1],6h[2:3],{2}2h[8:21],
,,{1}7h[8:9],
{32},,,,,D7`D3,A6`A3,D6`D4,A5`A4,D5,
E
