&title=Pentiment
&artist=Nothing But Requiem with Museo
&first=0
&des=cosmos31415926
&lv_5=14
&lv_6=14+
&inote_5=(222)
{1},{24},
{4}12,1/2h[4:3],,,4b,,,,
{4}78,8/7h[4:3],,,5b,,,,
{4}34,3h[4:3]/4,,,1b,,,,
{4}56,5/6h[4:3],,,8b,,,,
{8}1,,,34,,56,,,7,,,18,,,6,4,
{8}8,,,65,,43,,,2,,,8h[8:3]/1h[8:3],,,,,
{16}1,2,3,4,5,6,7,8,15,2,3,4,5,,,,8,7,6,5,4,3,2,1,48,7,6,5,4,,,,
{24}18,27,36,{8}4h[8:7]/5h[8:9],{4},,,,,{8}3-8[8:1]/6-1[8:1],45,3b/6b,,
{8}2h[8:3]/5,4,5,4,2h[8:3]/5,4,5,4,3h[8:3]/6,5,6,5,3h[8:3]/6,5,6,{16}5,3,{8}4h[8:3]/7,6,7,6,4h[8:3]/7,6,7,6,{4}48,37,26,15,
{8}7h[8:3]/4,5,4,5,7h[8:3]/4,5,4,5,6h[8:3]/3,4,3,4,{16}6h[8:3]/3,4,{8}5,3,4,5h[8:3]/2,3,2,3,5h[8:3]/2,3,2,3,{6}5h[8:1]/1h[8:1],6h[8:1]/2h[8:1],7h[8:1]/3h[8:1],{4}4h[4:1]/8h[4:1],,
{8}2h[8:3]/5,4,5,4,2h[8:3]/5,4,5,4,3h[8:3]/6,5,6,5,3h[8:3]/6,5,6,{16}5,3,{8}4h[8:3]/7,6,7,6,4h[8:3]/7,6,7,6,{4}1-5[8:1],7-3[8:1]/1,2-6[8:1]/7,28,
{8}1,28,3,46,5,46,3h[8:1]/7h[8:1],,8,17,26,35,{16}3,4,3,,6,5,6,,
{8}2,4,3,5,4,6,5,7h[4:1],,,5,46,,4h[4:1]/6h[4:1],,,
{32}1b,28,37,46,{8}5h[8:1],,3,2h[4:1]/4h[4:1],,,,57,,57,,68,17,28,,
{8}46,,24,35,46,,46,,28,,{16}4z8[4:1]/8z4[4:1],37,26,15,48,,,,,,,,
{32}8b,71,62,53,{8}4h[8:1],,6,7h[4:1]/5h[4:1],,,,42,,42,,31,82,71,,
{8}36,,45,2,34,7,56,1,{16}8,2,8,2,7,3,7,3,6,4,6,4,5b,,,,
{32}15,2,3,4,5,6,7,8,{8}15,6,37,8,15,,15,,15,4,37,2,15,3,
{32}84,7,6,5,4,3,2,1,{8}84,3,62,1,84,,84,,84,5,62,7,84,,
{32}48,3,2,1,8,7,6,5,{8}48,7,26,5,48,,48,,48,1,26,3,48,2,
{32}51,6,7,8,1,2,3,4,{8}51,2,73,4,51,48,37,7-4[8:1]/3,,3,3-8[8:1],,6b,,
{4}5,,4,,1,3,2,5,8,,1,,34,8,3,5,28,1,7,3,1,5,8,4,56,,,,2q4[2:1]/7p5[2:1],,,,
{8}18,2,18,7,18,3,18,6,{16}18,2,3,4,{4}1s5[4:1]/5s1[4:1],,,
{8}81,7,81,2,81,6,81,3,{16}81,7,6,5,{4}8z4[4:1]/4z8[4:1],,,
{8}1,,8,7,65,,7,,8,,1,2,43,,2,,
{4}4h[8:1]/5h[8:1],3h[8:1]/4h[8:1],2h[8:1]/3h[8:1],1h[8:1]/2h[8:1],8h[8:1]/1h[8:1],7h[8:1]/8h[8:1],6h[8:1]/7h[8:1],5h[8:1]/6h[8:1],
{8}4h[8:1]/6h[8:1],,4h[8:1]/6h[8:1],,4h[8:1]/6h[8:1],,4h[8:1]/6h[8:1],,4h[8:1]/6h[8:1],,4h[8:1]/6h[8:1],,4h[8:1]/6h[8:1],,4/6h[8:1],2,
{8}3h[8:1]/5h[8:1],,3h[8:1]/5h[8:1],,3h[8:1]/5h[8:1],,3h[8:1]/5h[8:1],,3h[8:1]/5h[8:1],,3h[8:1]/5h[8:1],,{2},
{2}4h[2:1],3h[2:1],2h[2:1],1h[2:1],8h[2:1],7h[2:1],6h[2:1],5h[2:1],
{1},,
{8}5h[8:1]/1,1,2h[8:1]/6,6,7h[8:1]/3,3,4h[8:1]/8,8,1h[8:1]/5,5,4h[8:1]/8,8,7h[8:1]/3,3,2h[8:1]/6,{16}6,5,
{8}4h[8:1]/8,8,1h[8:1]/5,5,6h[8:1]/2,2,3h[8:1]/7,7,8h[8:1]/4,4,3h[8:1]/7,7,6h[8:1]/2,2,{16}1h[8:1]/5,6,7,,
{8}24,24,35,35,46,46,57,57,4-1[8:1]/8-5[8:1],,48,,2-7[8:1]/6-3[8:1],37,26,,
{4}6v8[8:1]/4-8[8:1],,5-1[8:1]/3v1[8:1],,7pp4[2:1]/2qq5[2:1],,,,
{16}1,2,3,4,8,1,2,3,7,8,1,2,6,7,8,1,5,6,7,8,4,5,6,7,3,4,5,6,2,3,4,5,
{16}8,7,6,5,1,8,7,6,2,1,8,7,3,2,1,8,{8}4h[16:1],4,5h[16:1],5,3h[16:1],3,6h[16:1],6,
{16}2,3,4,5,1,2,3,4,8,1,2,3,7,8,1,2,{8}4,35,,8,17,26,35,4,
{4}8-3[8:1]*-5[8:1],,4-1[8:1]*-7[8:1],,{8}26,2pp5[2:1]/6pp1[2:1],,,,,,,
{8}3b/6b,,36,,36,,45,36,27,,15,,48,,3b/6b,,3b/6b,,36,,36,,45,27,18,,27,,{16}3b/6b,,4,5,4,,3b/6b,,{8}3b/6b,,25,,47,,36,27,18,,23,,45,,67,,25,3,47,6,25,3,47,6,{4}25,36,C,,
{16}2x/6x,,,4x/8x,,,3,2,{8}15,26,37,48,{4}1s5[4:1]/5s1[4:1],,,C/B2/B3/B5/B6,
{16}7x/3x,,,5x/1x,,,6,7,{8}84,73,62,51,{4}8z4[4:1]/4z8[4:1],,,C/B7/B6/B4/B3,
{4}4h[4:3]/5h[4:3],,,,3h[4:3]/6h[4:3],,,,2h[4:3]/7h[4:3],,,,{8}18,18,18,18,1h[4:1]/8h[4:1],,,,
{8}34,34,25,25,16,16,78,78,56,56,47,47,38,38,1b/2b,,
{8}45,45,36,36,27,27,18,18,27,27,27,27,27,27,2b-5[8:1]/7b-4[8:1],27,27,,
{12}B2,B3,E4,B7,B6,E6,B1,B2,E3,B8,B7,E7,E4,E5,E3,E6,E5,E7,E1,E8,E2,
{16}6,5,6,5,7,4,7,4,8,3,8,3,1qq5[2:1],2,1,2,{4}1,,4-2[8:1],4,
{8}18,,27,,36,,45,4,45,,36,,27,,18,,
{8}34,2,56,7,34,1,56,8,3h[8:1]/4h[8:1],,2h[8:1]/5h[8:1],,1h[8:1]/6h[8:1],,7h[8:1]/8h[8:1],,
{8}65,7,43,2,65,8,43,1,6h[8:1]/5h[8:1],,7h[8:1]/4h[8:1],,8h[8:1]/3h[8:1],,2h[8:1]/1h[8:1],,
{8}7-3[8:1]/5,8,57,,2-6[8:1]/4,1,24,,1-4[8:1]/8-5[8:1],,18,,36,36,27,18,
{8}26,15,26,15,26,15,26,15,26,48,26,48,2-4[8:1]/6-8[8:1],,,,
{8}73,84,73,84,73,84,73,84,73,51,73,51,7-5[8:1]/3-1[8:1],,,,
{8}46,2,34,7,56,,18,2,18,7,18,2,{16}6,5,7,,3,4,2,,
{8}2-5[8:1],1,2,,7-4[8:1],8,7,,1h[8:1]/8h[8:1],,3h[8:1]/6h[8:1],,1-5[8:1]/8-4[8:1],,,,
{4}3b/6b,,,,8,7,6,5,43,,,,65,,,{8}2,1,
(210)
{2}87,65,43,21,
(200)
{2}87,,,5b/4b,,,
(222)
{4},
{16}6x,5x,6x,,74,,3x,4x,3x,4x,3x,,52,,6x,5x,6x,5x,6x,,74,,3,,6x/1x,,6x/1x,,8x/3x,,8x/3x,,
{16}3x,4x,3x,,25,,6x,5x,6x,5x,6x,,47,,3x,4x,3x,4x,3x,,25,,63,,3x/7x,,3x/7x,,{12}2x/6x,1x/5x,8x/4x,7x/3x,,,,,C,,,,,{1},,,E
&inote_6=(222)
{1},{24},
{4}5s1[2:1]/6,5/6h[2:1],,,5b,,,,
{4}4z8[2:1]/3,4/3h[2:1],,,4b,,,,
{4}8z4[2:1]/7,8/7h[2:1],,,8b,,,,
{4}1s5[2:1]/2,1/2h[2:1],,,1b,,,,
{8}45,3,3,46,6,35,3,3,47,7,7,26,2,2,27,36,
{8}54,6,6,53,3,64,6,6,52,2,2,73,{16}1,1,1,1,1,1,1,1,
{16}1,2,3,4,8,1,2,3,7,8,1,2,37,,,,8,7,6,5,1,8,7,6,2,1,8,7,26,,,,
{24}18,27,36,{8}4h[8:1]/5h[8:7],{32},3,{16}2h[16:1],{32},3,{16}4h[16:1],
{32},3,{16}2h[16:7],,,,,,,{32},36,{16}4h[16:3]/7h[16:3],,,{32},36,{16}25,,,{8}18,27,3b/6b,,
{8}18,27,36,27,18,27,36,27,18,36,45,36,18,36,45,{16}36,27,{8}18,45,36,45,18,45,36,45,{4}2b-4[8:1],1b-5[8:1],8b-6[8:1],,
{8}28,37,46,37,28,37,46,37,17,26,35,26,{24}26,37,48,{8}15,48,37,18,27,36,45,35,46,35,46,{6}2b/5b,4b/7b,1b/5b,4b/8b,,,
{8}81,72,63,72,81,72,63,72,81,63,54,63,81,63,54,{16}63,72,{8}81,54,63,54,81,54,63,54,{4}7b-5[8:1],8b-4[8:1],1b-3[8:1],,
{8}46,37,28,1,28,37,4h[8:1]/6h[8:1],,37,26,15,48,{16}37,48,15,26,37,48,15,26,{1}3>3[1:1]/7<7[1:1],,
{24}81,72,63,{8}5h[8:1]/4h[8:5],{32},6,{16}7h[16:1],{32},6,{16}5h[16:1],
{32},6,{16}7h[16:7],,,,,,,{32}1,2,3,4h[32:5],,,,,1,2,3,4h[32:5],,,,,1,2,3,4,1,2,3,4,1,2,3,4h[32:5],,,,,
{32}7,6,5,4h[32:5],,,,,7,6,5,4,7,6,5,4,7,6,5,4h[32:5],,,,,7,6,5,4h[32:5],,,,,
{32}1,2,3,4h[32:5],,,,,{16}8,5,8,5,{32}8,7,6,5,4,3,2,1,{4}8b,
{24}18,27,36,{8}4h[8:1]/5h[8:5],{32},3,{16}2h[16:1],{32},3,{16}4h[16:1],
{32},3,{16}2h[16:7],,,,,,,{32}8,7,6,5h[32:5],,,,,8,7,6,5h[32:5],,,,,8,7,6,5,8,7,6,5,8,7,6,5,,,,,
{8}36,,17,35,28,46,18,45,{16}1,8,3,6,2,7,4,5,26,37,48,15,26,,,,
{8}17,,35,{16}6,5,6,,6,4,6,,6,3,6,,6,2,6,,6,1,6,,6,8,6,,,,
{8}82,,64,{16}3,4,3,,3,5,3,,3,6,3,,3,7,3,,3,8,3,,3,1,3,,,,
{8}18,,36,{16}6,5,7,,3,4,2,,6,5,8,,3,4,1,,6,4,8,,3,5,1,,,,
{8}45,34,23,12,18,78,67,56,45,4/5-8[8:1],,2,2-5[8:1],,1b,,
{4},,,,,,,,,,,,2h[1:1],,,,6h[1:2],,,,,,,,3h[1:1],,,,7h[2:1],,{24}1,2,3,4,5,6,7,8,1,2,3,4,
{8}15,15,48,48,37,37,26,26,{16}15,26,37,48,{4}1s5[4:1]/5,,,
{8}48,48,37,37,26,26,15,15,{16}48,15,26,37,{4}4z8[4:1]/8,,,
{8}28,,3-8[8:1],4,35,,6,,17,,6-1[8:1],5,46,,3,,
{8}2>5[8:1],,1,8,7<4[8:1],,3,2,1-5[8:1],,6,7,8w4[8:1],,8b,,
{4}1h[4:7]/8h[4:7],,,,,,,{8},27,{4}3h[4:7]/6h[4:7],,,,,,,,
{8}8h[8:3]/4,4,4,4,3h[8:3]/7,7,7,7,6h[8:3]/2,2,2,2,1h[8:3]/5,5,5,5,
{8}48,48,48,48,15,15,15,15,{16}2,6,2,6,2,6,2,6,3,7,3,7,3,7,3,7,
{4}4,{16}5,4,5,4,6,3,6,3,7,2,7,2,8,7,6,5,1,8,7,6,2,1,8,7,26,,,,
{16}4,5,4,5,3,6,3,6,2,7,2,7,1,8,1,8,2,1,2,1,3,8,3,8,4,7,4,7,5,6,5,6,
{16}3,4,3,4,2,5,2,5,1,6,1,6,8,7,8,7,1,8,1,8,2,7,2,7,3,6,3,6,4,5,4,5,
{16}1,2,8,7,2,3,7,6,2,3,7,6,3,4,6,5,{8}48,,15,,26,37,48,,
{4}7-4[8:1]/8-3[8:1],,1-6[8:1]/2-5[8:1],,1<1[2:1]/8>8[2:1],,,,
{16}2,1,3,4,1,8,4,5,8,7,5,6,1,8,4,5,1,2,3,4,7,6,5,4,2,3,4,5,8,7,6,5,
{16}1,7,3,5,2,8,4,6,3,5,1,7,4,6,2,8,2,4,2h[8:1],,5,3,5h[8:1],,4,6,4h[8:1],,7,5,7h[8:1],,
{16}3,4,2,5,1,6,8,7,5,6,4,7,3,8,2,1,{8}3,24,,6,57,48,13,2,5h[8:1]/7h[8:1],,,2h[8:1]/4h[8:1],,,{16}1,8,1,8,{8}27,2-5[8:1]/7-4[8:1],,2b/7b,,,,,
{4}3b/6b,,,,,,,3b/6b,3b/6b,,,,,,{16}3b/6b,,4,5,4,,3b/6b,,
{4}3b/6b,,,,,,,3b/6b,47,25,47,25,64,53,C,,
{64}7b,,,B7,,,C,,,B3,,,1b,,,B1,,,C,,,B5,,,{16}6,4,{8}37,26,15,48,{4}3q1[2:1]/7q5[2:1],,,,
{64}2b,,,B2,,,C,,,B6,,,8b,,,B8,,,C,,,B4,,,{16}3,5,{8}62,73,84,51,{4}6p8[2:1]/2p4[2:1],,,,
{8}5,5,5,5,46,46,46,46,4,4,4,4,35,35,35,35,6,6,6,6,57,57,57,57,3,3,3,3,24,24,24,,
{8}8,8,17,17,26,26,35,35,1,1,28,28,37,37,46,,
{16}4,5,4,5,3,6,3,6,2,7,2,7,1,8,1,8,1,1,1,1,1,1,1,1,1,1,1,1,{32}1w5[8:1],28,37,46,{8}5,{16}1b,Cf,,,
{12}2x,3,4,1x,2,3,8x,1,2,7x,8,1,6x,7,8,5x,6,7,4x,5,6,
{16}3x,4,3,4,2x,5,2,5,1x,6,1,6,8x,7,8,7,
{16}1,2,3,4,5,6,7,8,16,5,4,3,2,1-5[8:1],8,7,
{1}1b/6,
{4}6b/7b,5b/8b,1b/4b,2b/3b,
{8}34,25,56,47,12,38,78,16,18,27,36,45,3-8[8:1]/6-1[8:1],,3b/6b,,
{8}47,25,38,16,87,21,43,65,18,27,36,45,{16}3,4,2,,6,5,7,,
{8}1,1,1,1,28,28,28,28,37,37,3>8[8:1]/7<4[8:1],37,37,,,,
{8}12,8,12,8,12,8,12,8,13,7,13,7,1-6[8:1]/3-5[8:1],,,,
{8}87,1,87,1,87,1,87,1,86,2,86,2,8-3[8:1]/6-4[8:1],,,,
{8}28,2,28,3,28,4,28,5,17,7,17,6,17,5,17,4,
{8}38,12,38,47,16,78,16,25,18,36,2pp4[8:1]/7qq5[8:1],45,27,,,,
{4}1b/8b,,,,1,2,3,4,56,,,,34,,,{8}7,8,
(210)
{2}12,34,56,78,
(200)
{2}12,,,4b/5b,,,
(222)
{4},
{16}3x,4x,3x,,25,,6x,5x,6x,5x,6x,,47,,3x,4x,3x,4x,3x,,25,,6,,3x/8x,,3x/8x,,1x/6x,,1x/6x,,
{16}6x,5x,6x,,74,,3x,4x,3x,4x,3x,,52,,6x,5x,6x,5x,6x,,74,,36,,6x/1x,,6x/1x,,{12}2x-6[8:1]/7x-3[8:1],2x/7x,2x/7x,,,,,C,,,,,{1},,,E
