&title=メンタルチェンソー
&artist=かいりきベア
&first=0.01
&des=めんたるなゆたん
&lv_5=12+
&lv_6=13+
&inote_5=(188){1},
{1},
{4}2h[4:1]/4,4,7h[4:1]/5,5,
{4}2/4,5/7,1/8,3b/6b,
{16}1,,2,,3xh[8:1]/8x,,,,4h[16:3],,,5h[16:3],,,6,,
{8},6/5,7xh[8:1]/4xh[8:1],,3,4,2x,,
{16}8,,7,,6xh[8:1]/1x,,,,5h[16:3],,,4h[16:3],,,3,,
{8},3/4,2xh[8:1]/5xh[8:1],,6,5,7x,,
{16}4,,3,,2xh[8:1]/5x,,,,3h[16:3],,,4h[16:3],,,5,,
{8},7/8,6xh[8:1]/1xh[8:1],,2,1,3x,,
{16}5,,6,,7xh[8:1]/4x,,,,6h[16:3],,,5h[16:3],,,4,,
{8},2/1,3xh[8:1]/8xh[8:1],,7,8,6bx,,
{8}5b-8[8:1],,,,1x,2x,3x,4x,
{8},7/5,7/5,,2-5[8:1]/8-4[8:1],,,,
{16},,6x,5,7,,1x,,2x/8x,,,,3/4,,3-8[8:1]/4-8[8:1],,
{4},,1bxw5[12:1],1b,
{8},,C,,8,2,6,4,
{8},7/3,7>3v5[8:3]/3,,,,,,
{8}2x,2x-4[8:1],,8x,8x-6[8:1],,1x,1xs5[2:1],
{1},
{16}1,8,1,,2b/7b,,,,3h[16:3],,,4h[16:3],,,5,,
{16},,6,,7,,8,,2,1,2,,8x/3x,,,,
{16}5,4,5,,6x/3x,,,,7h[16:3],,,6h[16:3],,,5,,
{16},,3,,2,,1,,7,8,7,,1bx/6bx,,,,
{8}5b-1[8:1],,,,2x,3x,4x,5x,
{8},7/8,7/8,,2-4[8:1]/5-1[8:1],,,,
{16},,7x,8,6,,4x,,3x/5x,,,,2/1,,2-6[8:1]/1-5[8:1],,
{4},,4bx-1[8:1]*-7[8:1],4b,
{8},,C,,8,2,6,4,
{8},1xs5[8:3],7xz3[4:1],,,,,,
{8}2x,2x-4[8:1],,6x,6x-8[8:1],,1x,1xqq4[2:1],
{1},
{8}5/3,,7b/2b,,1/8,1-4[8:1]/8-5[8:1],,,
{8},,3xh[2:1],,E7,,E6,,
{8}4/6,,2b/7b,,8/1,8-5[8:1]/1-4[8:1],,,
{8},,6xh[2:1],,B2,,B4,,
{8}5/3,,7b/2b,,1/8,1-4[8:1]/8-5[8:1],,,
{8},,2xh[2:1],,E8,,C,,
{2}3h[4:1]/5h[4:1],6h[4:1]/4h[4:1],
{4}2b/4b,7b/5b,1b-5[8:1]/8b-4[8:1],,
{8}2x/7bx,2bx/7x,2x-5b[8:1]/7bx-4[8:1],2bx/7x,2x/7bx,,Cf,,
{4}1xh[8:1]/2xh[8:1],8h[8:1]/7xh[8:1],6h[8:1]/5xh[8:1],3xh[8:1]/4h[8:1],
{4}1x-5[8:1]/2x-6[8:1],1b/2b,8x-4[8:1]/7x-3[8:1],8b/7b,
{4}8x-4[8:1]/2x-5[8:1],8b/2b,1x-5[8:1]/7x-4[8:1],1b/7b,
{8}2x-6[8:1],,2b/8x-4[8:1],,8b/2x,1x,1x,,
{4}8xh[8:1]/7h[8:1],1h[8:1]/2xh[8:1],3h[8:1]/4xh[8:1],6xh[8:1]/5h[8:1],
{4}8x-4[8:1]/7x-3[8:1],8b/7b,1x-5[8:1]/2x-6[8:1],1b/2b,
{4}1x-5[8:1]/7x-4[8:1],1b/7b,8x-4[8:1]/2x-5[8:1],8b/2b,
{8}7x/2x,1x/7x,1x/7x,1x/7x,1x/7x,,2b/8b,,
{8}5x/3x,,7/2,,1/8,1-5[8:1]/8-5[8:1],,,
{8},,2xh[2:1],,E1/B8,,B5/E5,,
{8}4x/6x,,2/7,,8/1,8-4[8:1]/1-3[8:1],,,
{8},,6xh[2:1],,E2/B2,,B6/B5,,
{8}5x/3x,,7/2,,1/8,1-6[8:1]/8-5[8:1],,,
{8},,4xh[2:1],,B7/E7,,D5/E5,,
{8}6b/3b,,7b/2b,,1b/8b,1b-4[12:1]/8b-5[12:1],,1b/8b,
{4},,,C,
{4}3/5,3/5,6/4,6/4,
{4}3/5,6/4,7x-5[8:1]/2x-4[8:1],7x/2x,
{8}A1/D2,,A8/D8,,E8/E3,E2/E7,,E6/E4,
{8},E5,,E3/D3,E7/D7,,C,,
{4}3/5,6/4,2/5,7/4,
{4}2/4,7/5,1x^4[8:1]/8x^5[8:1],1x/8x,
{8}A8/D8,,A1/D2,,E2/E7,E8/E3,,E4/E6,
{8},E5,,E7/D7,E3/D3,,C,,
{4}3h[8:1]/5h[8:1],3h[8:1]/5h[8:1],6h[8:1]/4h[8:1],6h[8:1]/4h[8:1],
{4}3h[8:1]/5h[8:1],6h[8:1]/4h[8:1],7x-4[8:1]/2x-5[8:1],7x/2x,
{8}A1/D2,,A8/D8,,E8/E3,E2/E7,,E6/E4,
{8},E5,,E3/D3,E7/D7,,C,,
{4}3h[8:1]/5h[8:1],6h[8:1]/4h[8:1],2h[8:1]/5h[8:1],7h[8:1]/4h[8:1],
{4}2h[8:1]/4h[8:1],7h[8:1]/5h[8:1],1x-6[8:1]/8x-4[8:1],1x/8x,
{8}A8/D8,,A1/D2,,E2/E7,E8/E3,,E4/E6/E5,
{8},,,1,1xh[8:1],,2xh[8:1]/8xh[8:1],,
{2}3h[4:1]/5h[4:1],6h[4:1]/4h[4:1],
{4}2b/4b,7b/5b,1b-5[8:1]/8b-4[8:1],,
{8}2x/7bx,2bx/7x,2x-5b[8:1]/7bx-4[8:1],2bx/7x,2x/7bx,,C,,
{8}8x/1bx,8bx/1x,8x/1bx,8bx/1x,7x/2bx,7bx/2x,7x-4b[8:1]/2bx-5[8:1],7bx/2x,
{8}7x/2bx,,,,,B3,B7,,
{1}1xh[8:7],
{16}2x,8,2,8,2,8,2,8,2xh[8:3],,,,,,,,
{16}7x,1,7,1,7,1,7,1,7xh[8:1],,,,C,,,,
{8}2x-6[8:1],8x-4[8:1],2x,8x,2x,1x,1x,,
{4}8xh[8:1]/7xh[8:1],6xh[8:1]/5h[8:1],2xh[8:1]/4h[8:1],7h[8:1]/5xh[8:1],
{4}2x-6[8:1],8x-4[8:1]/2b,8b/1x-5[8:1],1b/7x-3[8:1],
{4}2x-5[8:1]/7b,8x-4[8:1]/2b,1x-5b[8:1]/8b,7xV51[4:1]/1bx,
{8}2x/7b,2x,2x,2x,8x/2x,,7b/1b,,
{8}2x-4[8:1]/8x,,5,,1/7,1-4[8:1]/7-5[8:1],,,
{8},,8xh[2:1],,E2/B2,,B5/E5,,
{8}7x-5[8:1]/1x,,4,,8/2,8-5[8:1]/2-4[8:1],,,
{8},,1xh[2:1],,E7/B7,,B4/E4,,
{8}2x-4[8:1]/8x,,5,,1/8,1-3[8:1]/8-5[8:1],,,
{8},,7xh[2:1],,B1/B2,,E6/B5,,
{8}4b,,2b/6b,,1b/7b,1b-4[12:1]/7b-5[12:1],,1b/7b,
{4},,,C,
{8}5b/4b,,6b/3b,,7b/2b,8b-5[12:1]/1b^4[12:1],,8b/1b,
{4},,,C,
{16}1x,8,1,,2x/7x,,,,3h[16:3],,,4h[16:3],,,5,,
{16},,6,,7,,8,,2,1,2,,8x/3x,,,,
{16}5,4,5,,6x/3x,,,,7h[16:3],,,6h[16:3],,,5,,
{16},,3,,2,,1,,7,8,7,,1x/6x,,,,
{16}3,4,3,,2x/5x,,,,3h[16:3],,,4h[16:3],,,5,,
{16},,6,,7,,8,,2,1,2,,8x/3x,,,,
{16}6,5,6,,7x/4x,,,,6h[16:3],,,5h[16:3],,,4,,
{16},,3,,2,,1,,7,8,7,,1x/6x,,,,
{1}4xpp4[4:3]*qq4[4:3],
{2},1bs5[8:1],
{1},
E
&inote_6=(188){1},
{16},,,,,,,,4x,5,4,5,4,5,4,5,
{8}4x,3,2h[8:1]/4,,5x,6,7h[8:1]/5,,
{16}2bx,,6x,5,8bx,,3x,4,1bx-5[12:1],,,,1b,,,,
{16}6x,5,7,,1,,8,,2h[16:3],,,3h[16:3],,,4,,
{16},,6,5,6,,7b,,1,8,1,,2b,,,,
{16}3x,4,2,,8,,1,,7h[16:3],,,6h[16:3],,,5,,
{16},,3,4,3,,2b,,8,1,8,,7b,,,,
{16}6x,5,7,,1,,8,,2h[16:3],,,3h[16:3],,,4,,
{16},,6,5,6,,7b,,3,4,3,,2b,,,,
{16}1x,8,2,,7,,3,,6h[16:3],,,5h[16:3],,,4,,
{16},,3,4,2,,1b/8b,,7,5,6,,4b,,,,
{8}5b-8[8:1],,,,1x,2x,3x,4x,
{8},6/5,7,1,2-5[8:1]/8-4[8:1],,,,
{16}4x,,6x,5,7,,1,,2/8,,3,,7,,6-1[8:1]/5-1[8:1],,
{4},,8bxw4[12:1],8b,
{8}4bx-1[8:1],,,,8,7,6,5v3>7[2:1],
{8},,,,,,,,
{8}3/5,3h[8:1]/5h[8:1],,6/4,6h[8:1]/4h[8:1],,5/3,5s1[2:1]/3,
{1},
{16}2x,1,3,,8b/4b,,,,7h[16:3],,,6h[16:3],,,5,,
{16},,3,4,3,,2b,,6,5,6,,7b,,,,
{16}8x,1,7,,2,,6,,3h[16:3],,,4h[16:3],,,5,,
{16},,6,5,7,,8b/1b,,2,4,3,,5b,,,,
{8}4b-8[8:1],,,,7x,6x,5x,4x,
{16},,3x,4,2,,1,,2-4[8:1]/5-1[8:1],,,,,,,,
{16}4x,,7x,5,6,,4,,3/5,,2,,6,,7-3[8:1]/8-4[8:1],,
{4},,5bx-8[8:1]*-2[8:1],5b,
{8}1bx-5[8:1],,,,6x,7x,8x,1x,
{8},2xz6[8:3],8xs4[4:1],,,,,,
{8}3/5,3h[8:1]/5h[8:1],,6/4,6h[8:1]/4h[8:1],,5/3,5qq8[2:1]/3,
{1},
{8}2/B5,,B3f/7b,,1x/8x,1-4[8:1]/8-5[8:1],,1x/8x,
{8},,3xh[2:1],,E7,,E6,,
{8}7/B4,,B6f/2b,,8x/1x,8-5[8:1]/1-4[8:1],,8x/1x,
{8},,6xh[2:1],,B2,,B4,,
{8}2/B5,,B3f/7b,,1x/8x,1-4[8:1]/8-5[8:1],,1x/8x,
{8},,2xh[2:1],,E8,,C,,
{4}3h[4:1]/5,5,6h[4:1]/4,4,
{4}2b/4b,7b/5b,1b-5[8:1]/8b-4[8:1],,
{8}2x/6x,3x/5x,2x/6x,3x/5x,2b/6b,B1f,B7f,,
{8}1x,2,3/8,7,2/6,3,4/8,7,
{8}2x/6x,5x/3x,2x^5[8:1]/6x,5x/3x,2b/6x,7x,7x,7x,
{8}7x/4x,6x/3x,7x-4[8:1]/4x,6x/3x,7b/4x,3x,3x,3x,
{8}2x-6[8:1],8x-4[8:1],2b,8b,2x,1b,1b,,
{8}8x,7,6/1,2,7/3,6,5/1,2,
{8}7x/3x,4x/6x,7x^4b[8:1]/3x,4x/6x,7b/3x,2x,2x,2x,
{8}2x/5x,3x/6x,2x-5b[8:1]/5x,3x/6x,2b/5x,6x,6x,6x,
{8}7x/2x,1b/7b,1b/7b,1b/7b,1b/7b,,2b/8b,,
{8}7x/B4,,B6/2,,1/8,1-5[8:1]/8-5[8:1],,1x/8x,
{8},,2xh[2:1],,8x-4[8:1],,,,
{8}2x/B5,,B3/7,,8/1,8-4[8:1]/1-3[8:1],,1x/8x,
{8},,7xh[2:1],,3x^6[8:1],,,,
{8}7x/B4,,B6/2,,1/8,1-6[8:1]/8-5[8:1],,1x/8x,
{8},,4xh[4:1],,7x^4[8:1],,,,
{8}1bx-5[8:1]/2bx-4[8:1],,1b/2b,,7bx,1b-4[12:1]/8b-5[12:1],,1b/8b,
{8},E4,E6,E2,E8,,C,,
{8}3/5,2,3/5,2,3/5,2,3/5,2,
{8}3/5,2,3/5,2,6x-4[8:1]/1x-3[8:1],,6x/1x,,
{8}A8/D8,,A1/D2,,E2/E7,E8/E3,,E4/E6,
{8},E5,,E7/D7,E3/D3,,C,,
{8}7/5,8,7/5,8,7/5,8,7/5,8,
{8}7/5,8,7/5,8,2x^5[8:1]/1x^6[8:1],,1x/2x,,
{8}A1/D2,,A8/D8,,E8/E3,E2/E7,,E6/E4,
{8},E5,,E3/D3,E7/D7,,C,,
{8}3/5,2,6/4,7,3/5,1,6/4,8,
{8}2/5,1,7/54,8,7x-4[8:1]/2x-5[8:1],,7x/2x,,
{8}A1/D2,,A8/D8,,E8/E3,E2/E7,,E6/E4,
{8},E5,,E3/D3,E7/D7,,C,,
{8}3/4,2,6/5,7,3/4,1,6/5,8,
{8}2/4,1,7/5,8,1x-6[8:1]/7x-4[8:1],,1x/7x,,
{8}A8/D8,,A1/D2,,E2/E7,E8/E3,,E4/E6/E5,
{16},,,,,,1,,2x,8,2,8,3x,7,3,7,
{4}6xh[4:1]/4x,4,3h[4:1]/5,5,
{4}7b/5b,2b/4b,1b-5[8:1]/8b-4[8:1],,
{8}2x/6x,3x/5x,2x/6x,3x/5x,2b/6b,,C,,
{8}6x/2bx,5bx/1x,6x/2bx,5bx/1x,6x/2bx,5bx/3x,6x/2bx,5bx/3x,
{1}6bh[4:3]/2bh[8:5],
{16}1xs5[8:3]/8xh[4:3],,,,,,,,,,,,,,1,8,
{32}1b,2,3,4,5x,6,7,8,1x,2,3,4,5x,6,7,8,1xh[8:3],,,,,,,,,,,,,,,,
{32}8b,7,6,5,4x,3,2,1,8x,7,6,5,4x,3,2,1,8xh[8:1],,,,,,,,1x,,,,1x,,,,
{16}2x,3,4,5,8x,7,6,5,4x/3x,,2b,,1b,,,,
{8}8x,7,6/1,2,7/3,6,5/1,2,
{16}7b,6,5,4,1b,2,3,4,5x/6x,,7x,,8x,,8x,,
{16}7b,6,5,4,1b,2,3,4,5x/6x,,7x,,8x,,8x,,
{8}7x/2x,6b/2b,6b/2b,6b/2b,6b/2b,,1b/7b,,
{8}7x/B4,,B6/2,,8/2,8-5[8:1]/2-4[8:1],,8x/2x,
{8},,1xh[2:1],,4x-8[8:1],,,,
{8}2x/B5,,B3/7,,1/7,1-4[8:1]/7-5[8:1],,1x/7x,
{8},,8xh[2:1],,3x^6[8:1],,,,
{8}7x/B4,,B6/2,,1/8,1-3[8:1]/8-5[8:1],,,
{8},,4xh[4:1],,7x^4[8:1],,,,
{8}1bx-6[8:1]/2bx-5[8:1],,1b/2b,,7bx/2bx,1b-4[12:1]/8b-5[12:1],,1b/8b,
{8},E6,E4,E8,E2,,C,,
{32}2b-5[8:1]/8b-5[8:1],,,,,,,,2b/8b,,,,,,,,7bx/3bx,,,,1bw5[12:1],,,,,,,,1b,Cf,,,
{8},E4,E6,E2,E8,,Cf,,
{16}6x,5,7,,1,,8,,2h[16:3],,,3h[16:3],,,4,,
{16},,6,5,6,,7b,,1,8,1,,2b,,,,
{16}3x,4,2,,8,,1,,7h[16:3],,,6h[16:3],,,5,,
{16},,3,4,3,,2b,,8,1,8,,7b,,,,
{16}6x,5,7,,1,,8,,2h[16:3],,,3h[16:3],,,4,,
{16},,6,5,6,,7b,,3,4,3,,2b,,,,
{16}1x,8,2,,7,,3,,6h[16:3],,,5h[16:3],,,4,,
{16},,3,4,2,,1b/8b,,7,5,6,,4b,,,,
{1}5xqq4[8:5]*pp5[8:5],
{16},,1,8,1bs5b[16:3],,7bxh[8:11],,1b,
{1},
E
