&title=五月雨恋歌
&artist=かぐらP
&first=0.038
&wholebpm=102
&lv_5=12+
&des_5=<。)#)))≦
&inote_5=(102)
{16},,,,
,,,,
,,,,
,,,,
{16},,,,
,,,,
,,,,
,,,,
{16},,,,
,,,,
,,,,
,,,,
{16}3h[8:3],,,,
,,5,,4h[8:3]
,,,,
,,6,,
{16}5h[8:3],,,,
,,7h[4:1],,6qq5[4:1]
,,,,
,,,,
{16}6h[8:3],,,,
,,4,,5h[8:3]
,,,,
,,3,,
{16}4h[8:3],,,,
,,2h[4:1],,3>6[4:1]
,,,,
,,,,
{16}4h[4:1],,,,
5,,4,,6h[4:1]
,,,,
4,,5,,
{16}3h[4:1],,,,
4<7[8:1],,,,
1>4[8:1],,,,
8,,8,,
{16}7h[4:1],,,,
5,,6,,
4>6[4:1],,,,
5,5,,,
{16}5,,,,
2h[8:1]/8h[8:1],,,,
4bq8[8:1]/6bp2[8:1],,,,
,,,,
{16}1-4[8:1],,,,
7,,,,
1-6[8:1],,,,
3,,2,,
{16}1h[8:1],,4h[8:1],,3h[8:1]
,,7h[8:1],,2-6[8:1]
,,,,
5,,,,
{16}8-5[8:1],,,,
2,,,,
8-3[8:1],,,,
6,,7,,
{16}8,,4,4,
6,,57,,
1-4[8:1]/3-1[8:1],,,,
,,,,
{16}8>3[8:1],,,,
6,,,,
8<5[8:1],,,,
3,,2,,
{16}1h[8:1],,4h[8:1],,
3h[8:1],,7h[8:1],,
5-1[8:1],,,,
8,,8,,
{16}2h[8:1]/6h[8:1],,,,
3,,7,,
8<5[8:1]/4>1[8:1],,,,
,,,,
{16}37,,5,4,
62,,45,,
3b-8[8:1]/7b-3[8:1],,,,
,,,,
{16}1h[4:1],,,,
4,,2,,
5,4,6h[8:1],,
2h[4:1],,,,
{16}4h[4:1],,,,
5h[4:1],,,,
7,5,7,,
1,,1,,
{16}1h[4:1]/4,,,,
7,,7,,
7h[4:1]/5,,,,
3,,3,,
{16}3qq6[4:1],,,,
5,,,,
8-5[8:1],,,,
4,,,,
{16}2h[4:1],,,,
4,,2,,
5,4,7h[8:1],,
1h[4:1],,,,
{16}4h[4:1],,,,
5h[4:1],,,,
7,8,7,,
1,,1,,
{16}5,,5,,
3,,4,,
7-3[8:1]*-4[8:1],,,,
,,,,
{16}2,,5,,
4,,7,,
1b,,,,
3,8,4,7,
{16}5>2[8:1],,5,,
8q5[8:1],,8,,
1<2[4:1],,,,
15,,,,
{16}7-4[8:1],,6,,
3>8[8:1],,2,,
5pp4[4:1],,,,
4,,3,,
{16}2V41[16:3],,,,
5,,5,,
6,,6,,
2,,2,,
{16}5/2-8[8:1],,,,
7-3[8:1]*-5[8:1],,,,
,,,,
4,,4,,
{16}8b<5[8:1],,8,,
3>8[8:1],,3,,
5p4[4:1],,,,
51,,,,
{16}3>8[8:1],,8<5[8:1],,
3,,5,,
4w8[8:1],,,,
4,,,,
{16}2h[8:1]/6h[8:1],,,,
3,,7,,
4b/8b,,,,
5b/6b,,,,
{16}1bqq4[8:3]/2bqq4[8:3],,,,
,,,,
,,,,
3,5,4,6,
{16}5b>2[8:1],,8,,
5qq6[4:1],,6,,
1h[8:1],,,,
1,,7,,
{16}56,,7>2[16:3],7,
5/3p6[16:3],,,,
,,,,
5pp5[4:1],,4,,
{16}3>8[8:1],,,,
3p6[16:3],,5,,3
,,,,
4,,5,,
{16}3/7h[16:3],,,5,
6qq5[4:1]*pp7[4:1],,57,,
,,,,
,,,,
{16}3p6[4:1],,,,
6<2[4:1],,,,
5>6[4:1],,,,
,,,,
{16}3,,1V38[4:1],1,
5pp4[4:1]/3,,,,
,,,,
2,,2,,
{16}1-4[8:1]/4,,,,
5V37[4:1],,6,,
7,,8,,
8,,48,,
{16}5b/6b,,4,,
2b/8b,,6,,
4,4,7,7,
2,2,5,5,
{16}1-4[4:1],,,,
,,,,
5pp5[4:1],,,,
2,,1,,
{16}8<1[2:1],,,,
,,,,
,,,,
6,,6,,
{16}4/6h[4:1],,,,
,,3,,
2h[4:1]/5,,,,
8,,8,,
{16}8<1[16:8],,,,
1p8[16:4],,,,
,,,,
,,,,
{16}4-1[4:1],,,,
,,,,
8pp6[4:1],,,,
4,,4,,
{16}3,,3,,
4,,5,,
6-3[8:1]/3,,,,
,,,,
{16}2/4h[4:3],,,,
,,,,
5h[8:2],,,,
,,,,
{16}3bqq5[8:3]/6bpp4[8:3],,,,
,,,,
,,,,
6,4,5,3,
{16}4b<7[8:1],,1,,
4qq5[4:1],,3,,
8h[8:1],,,,
8,,2,,
{16}43,,2<7[16:3],2,
4/6q3[16:3],,,,
,,,,
4qq4[4:1],,5,,
{16}6<1[8:1],,,,
6q3[16:3],,4,,6
,,,,
5,,4,,
{16}24,,3h[4:1],,
4pp5[4:1],,4qq3[4:1],,
,,,,
,,,,
{16}6q3[16:3],,,,
2<7[16:3],,,,
4pp3[4:1],,,,
,,,,
{16}1,,2V41[4:1],2,
4/6pp4[4:1],,,,
,,,,
1,,2,,
{16}3>8[8:1]/4,,,,
7-2[8:1],,6,,
5,,5,,
3,,3,,
{16}2b/4b,,8,,
5b/6b,,3,,
1,1,5,5,
4,4,7,7,
{16}1b,,24,,
6,5,7,,
18,,35,,
6,5,7,,
{16}18,,24,,
17,,5/6<1[8:1],,1/2>5[8:1]
,,,,
,,8,,
{16}8,,57,,
3,4,2,,
17,,56,,
3,4,2,,
{16}8>3[8:1],,2,,
8<5[8:1],,5,,
84,,2,,
3,3,4,,
{16}1b,,2-5[8:1],,
3,4,2,,
8,,7-4[8:1],,
6,5,7,,
{16}1,,35,,
7,,28,,
3,4,3,,
15,,15,,
{16}2,,3-6[8:1],,
5,5,3,,
8,,7-2[8:1],,
1,1,7,,
{16}3b<6[8:1],,4,,
7b>2[8:1],,8,,
4bw8[8:1],,,,
4,,,,
{16}3bqq4[1:1]/5bpp4[1:1],,,,
,,,,
,,,,
,,,,
{16},,,,
,,,,
,,,,
,,,,
{16},,,,
,,,,
,,,,
,,,,
{16},,,,
,,,,
,,,,
,,,,
