&title=Blue Rose
&artist=Cosmograph
&first=0
&des=Dolive
&lv_5=13
&inote_5=(147.5)
{4},,,,
{16}54,,2,1,,7,5,,2,4,3,5,4>1[8:1],,6,,47,,8,8,2,1,3,7,5<8[8:1],6,3,,2h[8:3]/5,,,,
1,,1,,2,8,,3,7,4,{24}6,5,6,{16}5,,47,,
{8}8-4[8:1]/3h[4:1],,,3>8[32:5],,5,6v1[32:5],7qq2[16:7],,,,3h[4:1],,,2,1,
4-8[8:1]/8h[4:1],,,7<4[32:5],,4,3-8[32:5],2V47[32:9],,,,6h[4:1],,{16}8,7,8,6,{8}1,
1q5[8:1]/6h[4:1],,,6v1[32:5],,4,3>8[32:5],2z6[32:9],,,,7h[4:1],,,6,5,
4p7[32:5]/3h[4:1],,,2-5[32:5],,8,7-4[32:5],6pp3[16:5],,,,2h[4:1],,{16}4,2,4,2,5,,
16,,7,8,7,,5-8[8:1]/6,,37,,5,,2-5[8:1],,3,8,2,,7h[8:3],,4,,4h[8:1],,,,6,5,6v4[8:1],,4V61[4:1]/7,,3h[4:1],,,,,,2q6[8:1],,,,21,,8,,7h[8:1],,5,6,,3,4,,28,,{24}7,6,5,{16}1,1,4,3,4,,
62,,7,8,7,,1-5[8:1]/5,,34,,1,,6<1[8:1],,7,4,6,,3h[8:3],,8,,8h[8:1],,,,7,6,1/5>1[32:5],2,3/8,,7h[4:1],,,,,,6h[8:1]/8h[8:1],,,,2,4,3,6,5,,
4b/7,7b/4,,5b/6,,2/1b,,3b/8,{32}8,7,6,5,{16}2,2,4,3,6,5,
6h[4:1],,,,5,,7/4,7/4,,2,1,,2,,7,8,
7h[4:1],,,,3,,4/6,4/6,,5,5h[4:1],,1,2,3,4h[16:5],
6,,,,7>2[8:1],,3,3,,4,4,,5v3[8:1],1,5,1,5,,8-3[8:1],,7,,8,6h[8:1],,,2,3,4,7,7,,
3h[4:1],,,,4,,2/5,2/5,,7,8,,6,,2,1,
2h[4:1],,,,6,,5/3,5/3,,4,4h[4:1],,8,7,6,5h[4:1],
2,,,(145){12}2h[12:1],4h[12:1],1h[12:1],5h[12:1],(140)8h[12:1],6h[12:4],7,5,3,(135){16}1<2[8:5],1/6bp6[8:5],,,,,,,,,,,,,,,,,,
(147.5)54,,3,3,2,4,,7,5,6,3,4,52,,
1q5[8:1],,8,,1/6>3[8:1],,,7,,8,7,6<1[8:1],5,,,26,,,3,,7,6h[8:1]/8,,3,4,2-5[8:1],,83,,72,,6b<1[8:1],,4,7,,3h[16:3],,,4,,25,25,,7h[4:1]/1,,3,,5,8,5,7,1,7,2,2,{24}6,5,4,7,6,5,{16}4,8,2,6,
1q5[8:1],,8,,1/6>3[8:1],,,7,,8,7,6<1[8:1],5,,,26,,,4,,1,3h[8:1]/8,,6,2,4-8[8:1],,1/5>7[4:1],,47,,5b,,,4,3,2,1,8,7,6,5,47,3,5/2-6[8:1],6,71,,2b/6b,,,8b-4[16:1],,,8b,,,2h[16:3],,,{16}4,3,6,5,
8p4[8:1],,1,,8/3<6[8:1],,,2,,1,2,3>8[8:1],4,,,73,,,6,,2,3h[8:1]/1,,6,5,7-4[8:1],,16,,27,,3b>8[8:1],,5,2,,6h[16:3],,,5,,74,74,,2h[4:1]/8,,6,,4,1,4,2,8,2,7,7,{24}3,4,5,2,3,4,{16}5,1,7,3,
8p4[8:1],,1,,8/3<6[8:1],,,2,,1,2,3>8[8:1],4,,,73,,,5,,8,6h[8:1]/1,,3,7,5v8[8:1],,8/4<2[4:1],,52,,4b,,,5,6,7,8,1,2,3,4,52,6,4/7-3[8:1],3,28,,7b/3b,,,1b-5[16:1],,,1b,,,7,,,{16}56,48,,
2,1,3,3,7,5,5,1,4,4-1[8:1],6,2,,4b/8b,,,,(139.5)7,,7,,(135)2,2,,(142.5)31,,6,5,6,3,4,3>5[2:1],8z4[2:1],,,,,,,,,,,,,,,,,
(147.5)
{16}15,,1,,1,5,1,6,1,7,1>4[8:1],8,1,,18,,7,,7,,7,5,7,,7,4,7,4,7,,56,,4,,37,,3,7,3,6,3,5,3>8[8:1],4,3,,34,,
6,,6,1,6,,{48}16,,2,,3,,{16}4,8-4[8:1],,35,,8,,,
2xh[16:1],,4,3,5h[16:1],2,6,4h[8:1],,7,5,6,4,8,8,1,1,3,4,5,6h[4:1],,3,,4,5x-8[10:1],,2x/7x,,5x,,
3,,1,7,8,,2,6,4,{24}7,5,6,2,4,3,5,4,5,{16}4,,1b/3,3b/1,,4,5,,8b/6,6b/8,,5,4,,2b/7>2[8:1],7b/2,,,
3h[4:1],,,,4<8[8:1],,3,5,,1,1,,28,,7,8,
5h[4:1],,,,4>1[8:1],,6,3,,7,7h[8:1],,8,6,8,6,
1h[4:1],,,,3<6[8:1],,1,4,,2,2h[8:1],,7,3,7,3,
28,,6,5,,14,1/4h[4:1],,,,{24}7,8,1,{16}2,,18,,
7h[4:1],,,,4V28[8:1],,3,5,,6,6,,51,,2,4,
2h[4:1],,,,1<6[8:1],,3,8,,4,4h[8:1],,5,3,6,2,
(145)7h[48:9],,,{12}8h[12:1],6h[12:1],1h[12:1],5h[12:1],(140)2h[12:1],4h[12:4],3,5,7,(135){16}1>8[8:5],1/4bq5[8:5],,,,,,,,,,,,,,,,,,
(147.5)67,,5,8,2,4,,13,,2,4,6,8,,
7h[4:3],,,,5,,,4h[16:5],,,,,,,,5h[16:5]/6h[8:3],,,,,,,,5h[4:1],6h[16:3],,,,,,,
4h[16:13],,,,,6,,,7h[16:5],,,,,,,,5<3[4:3]/6,,,,,,,,,,,,,,,,,
5h[4:3],,,,3,,,2h[16:5],,,,,,,,3h[16:5]/4h[8:3],,,,,,,,3h[4:1],4h[16:3],,,,,,,
2h[16:7],,,5,,,,6,,{24}1,2,3,{16}7,5,6,3,4,,2b/5-7[12:1],,,8b-4[12:1],,,3b-1[12:1],,,3,,,5,6,7,8,
1b<6[12:1]/4b-2[12:1],,,,14,,,5q1[8:1],,1,5,,2,,3,4>1[8:1],5,,83,,7,7,,6,1,6V82[8:1],,53,,46,,
3bv8[10:1],,4,,3,5-7[12:1],,1,5,,2V48[8:1],,3,1,,7,,7,6,5,4,83,1,2,3/5-1[12:1],6,7-3[12:1],,5,,7,,,
4b-7[12:1]/1bV35[8:1],,,,41,,,8-4[8:1],,5,8,,2,,1<6[12:1],2,3,,14,,3,2h[8:1]/5,,7,4,1-5[10:1],,2>8[32:7]/8,,13,,
2b,,,,,16,,3,4,3,7,5,7,{24}2,3,4,8,7,6,{16}1b<6[12:1]/5b>2[12:1],,,1b-5[8:1]/5b,,,1b/5b,,,6b,,,7,4,5,2,
8bp4[12:1]/3b-8[12:1],,,,83,,,3x>1[8:1],,1,5,3,8xq4[12:1],,,8b/7,,,5,,5,6h[8:1]/2,,3,7,5V31[8:1],,8-5[32:3],,5<7[12:1],,8b,,,2,3,4-1[8:1],,{24}7,6,5,{16}4x,,6,,62,,1,1b/7,,,2,4,2,8,3,8,{24}3,4,5,1,8,7,2,5,2,{16}5,,
1-5[12:1]/6b<1[12:1],,,,16,,,6x>4[8:1],,8,4,6,3xq7[12:1],,,1b/3,,,2,,2,3h[8:1]/8,,6,1,4,,2-6[12:1],,1,6,
2b,,,{24}8x,7,6,{16}54,,{24}8x,7,6,{16}5,3,4,3,2x/5x,,78,,
{32}1bh[8:1]/2xb,3,4,5,{16},{32}8bh[8:1]/7xb,6,5,4,{16},2xb/6xb,,,3,5,1,7,2,6,4,7,,{24}1/5qq3qq1qq7qq5pp7pp1pp3pp5>5[4:15],26,37,4bh[8:23]/8b,
