&title=轆轤首
&artist=かねこちはる
&first=0
&des=SJTU Chart Team "Ahav" vs "Doshi"
&wholebpm=218
&clock_count=4
&lv_5=14+
&inote_5=(218)
{1},
{8}3V51[4:3],,,,6,,7,,
{8}8<3[8:6],,,,2,,1,,
{8}8V25[8:6],,,,5,,6,,
{8}7pp4[8:6],,,3h[8:3],,,,,
{8}2-4[16:3],,5,,7h[16:4],,5,,
{8}7-5[16:3],,4,,2h[16:4],,4,,
{8}6,6,5,7,3,3,4,2,
{8}6,6,5,4,2,2,4,5,
{8}7,7,5,4,2,,1w5[8:1],,
{1}1bqq5[8:13]*pp8[8:7],,
{8}2,4h[4:1],3h[8:1],,6h[4:1],5h[8:1],,3h[4:1],4h[8:1],,7h[4:1],5h[8:1],,2h[4:1],4,5,
{8}6,7h[4:1],8h[8:1],,2h[4:1],1h[8:1],,7h[4:1],8h[8:1],,3h[4:1],1h[8:1],,6h[4:1],8,,
{8}5h[16:1]/1h[16:1],1h[16:1]/5h[16:1],6h[16:1]/2h[16:1],6h[16:1]/2h[16:1],
{8}3h[16:1]/7h[16:1],3h[16:1]/7h[16:1],4h[16:1]/8h[16:1],4h[16:1]/8h[16:1],
{16}51,6,7,8,15,2,3,4,
{16}5/8w4[8:1],,,,8b,,,,
{4}6-2[8:1],4-1[8:1],8-5[8:1],2-7[8:1],
4V68[4:1],8V64[4:1],4,2,
{12}3,4,2,6,5,6,3,4,3,6,5,7,
{4}3-7[8:1],5-8[8:1],1>4[8:1],7,
{12}6,5,7,3,4,3,6,5,6,3,4,2,
{4}7-4[8:1],3-7[8:1],5<8[8:1],1,
{12}2,3,4,58,7,6,53,2,1,84,5,6,
{2}7h[4:3]/1qq5[8:4],,
{8}8>3[8:1],,4-8[8:1],,7<4[8:1],,2,,1<6[8:1],,5-1[8:1],,4>1[8:1],,
{16}8,7,6,5,
{8}4-8[8:1],2,2>5[8:1],,6<1[8:1],,3,,2V46[4:1],,6V42[4:1],,1b,,
{16}8,7,6,5,
4-8[8:1],,,,2>5[8:1],,,,6-1[8:1],,,,3-8[8:1],,,,7<4[8:1],,,,1,,,,2>5[16:3],,,,2,1,8,7,
{8}6h[4:1],4,3V17[4:1],,7V13[4:1],,4,,
6-1[8:1],,56,,
{16}2,3,4,5,6,7,8,1,
{16}2b/7b-4[8:1],,,4V61[8:2],,,2,,,,3,4,
5-2[8:1],,,2V84[4:1],,,8,,,,5,6,7,8,3,2,1,8,7,6,
{16}5,4,3b-8[8:1],,,8V25[8:2],,,6,,,,6,7,8-4[8:1],,
{16},4V61[8:2],,,3,,,,,3,4,5,6,7,8,1,
{16}6b/2b-5[8:1],,,5V38[8:2],,,7,,,,6,5,
4-7[8:1],,,7V15[4:1],,,1,,,,4,3,2,1,6,7,8,1,2,3,
{16}4,5,6b-1[8:1],,,1V74[8:2],,,3,,,,3,2,1-5[8:1],,
{16},5V38[8:2],,,7,,,,,6,5,4,3,2,1,8,
{1}3xbpp2[16:20]/7xbpp6b[16:20],
{1},
{16}3/5h[4:2],,,,7x>3[16:3],,,,,,6xpp5[8:3],,,,6x,,3x,,3x,2x,1x,,1x,,4x-8[8:1],,2x,,3x,,,,
{16}6/4h[4:2],,,,2x<6[16:3],,,,,,3xqq4[8:3],,,,3x,,6x,,6x,7x,8x,,8x,,5x-1[8:1],,7x,,6x,,,,
||后面你们写
{16}3/4h[4:2],,,,7xV13[16:3],,,,,,6xpp7-5[8:3],,,,6x,,3x,,3x,2x,1x,,1x,,4x-8[8:1],,2x,,3x,,,,
{16}6/5h[4:2],,,,2xV86[16:3],,,,,,3xqq2-4[8:3],,,,3x,,6x,,6x,7x,8xV64[8:3],,3x,,,,2x,,,,1x,,
{8}2b-5[8:1],,2b/8-4[8:1],,8b/3-8[8:1],,7-4[8:1]/3b,,
{16}7b/1-5[8:1],,,,6-1[8:1]/1b,,,,6b/4-8[8:1],,,,4b,,,7,
{16}7xv4[8:1],,,,7b/1,,,,1x/5x,26,37,48,1-6[8:1]/5,,,,
{8}3b-8[8:1],,5b-2[8:1],,7b-4[8:1],,1b,,
{16}87,,61,,5/2-5[8:1],,,1,2,,,,8x/4x,73,62,51,
{12}8-3[8:1]/4-8[8:1],,,48,,,7,5,6,3,4,2,
{24}71,,,6,,,6,,5,,7,,3,,,4,,,2,1,8,7,6,5,
{4}4b-2[8:1],5b-1[8:1],6b-8[8:1],3b-7[8:1],
{8}5b-1b[8:1],,,,7b-1[8:1]/2b-6[8:1],7b/2b,7b-4[8:1]/2b,,
{16}7b/3b-1[12:1],,,,3-5[12:1]/8,,8x,7x,6x-1[12:1]/3,,,,62,,,,
{16}2,,2x,3x,4x/5<1[16:3],,5x,,1,2,3,4,5s1[4:3]*z1b[4:3],,,,
{1},
{16}2bx/8bx,,2bx/8bx,3bx/7bx,4bx/6bh[8:1]x,,3bx,2bx,
{12}1bx,7bx,7bx,
{16}4bx,,3bx/6bx,2bx/5bx,
{16}4bx/1bx-5[8:1],,,,6x,7x,8x,,1x-5b[8:1]/4x,,3x,,2,,,,
{16}2x/6x,,3/7,,4/8,,5/1,,6x,7x,8x,1x,{24}2x,3,4,{32}5,6,7,8,
{16}1x/5x,,3x,4,2,,15,,6,5,7,,48,,3,,
{384}2bpp4V28-6[4:13],6bv8<2b[4:13],{192},{96},{48},,{16},,,{4},
{2},,,
{8},,,,,,,,
{1},
{2}2>6[4:3],,
{2}8p4[4:3],,
{8}3qq8[4:6],,,,,,,,
{8}7<4[16:8],,,,,,,,
{16}2h[4:1],,,,4h[4:1],,,,A7,E8,E1,A1,
A5,E6,E7,A7,
{8}4qq8[8:5],,,8,7-5[8:1],,7,,
{16}2h[4:1],,,,8h[4:1],,,,A5,E5,E4,A3,A7,E7,E6,A5,
{8}1pp5[8:5],,,5,6-8[8:1],,6,,
{16}3h[4:1],,,,5h[4:1],,,,8,1,2,3,5,6,7,8,
{16}5bx-2[8:1]/1bx-6[8:1],,,,,,,,1x,5x,1x,5x,1xw5[8:1],,,,
{1}1bqq5[8:13]*pp8[8:7],,
{8}2,4h[4:1],3h[8:1],,6h[4:1],5h[8:1],,3h[4:1],4h[8:1],,7h[4:1],5h[8:1],,2h[4:1],4,5,
{8}6,7h[4:1],8h[8:1],,2h[4:1],1h[8:1],,7h[4:1],8h[8:1],,3h[4:1],1,1,6h[4:1],8,8,
{8}5h[16:1]/1h[16:1],1h[16:1]/5h[16:1],2h[16:1]/6h[16:1],2h[16:1]/6h[16:1],
{8}3h[16:1]/7h[16:1],3h[16:1]/7h[16:1],4h[16:1]/8h[16:1],4h[16:1]/8h[16:1],
{16}51,6,7,8,15,2,3,4,5-1b[8:1]/8-4b[8:1],,,,,,,,
||1st
drop
{16}2-5[8:1],,6x<1[8:1],,2,,6,,4,,4,,1,8,7,6,5/1-3[8:1],,4-8[8:1],,1,,4>1[8:1],,,,46,,7,,8,,
{16}7b/1b,,,,2,3,4,5,1,8,7,6,1,2,3,4,5/7-4[8:1],,,,73,,1,,1b-5[8:1],,7,,1,,,,
{16}6-1[8:1],,2x>5[8:1],,6,,2,,8,,8,,5,4,3,2,1/5-7[8:1],,8-4[8:1],,5,,8<5[8:1],,,,83,,3,,2,,
{16}1b/5b,,,,5,6,7,8,2,3,4,5,1,8,7,6,5/2-5[8:1],,,,26,,8-3[8:1]*-5[8:1],,,,,,,,,,
{16}1-5[8:1],,6,,1,,7^4[8:1],,4q8[8:1],,2,,8,1,2,3,4-1[8:1],,7,,4,,6h[4:1],,8,,2-5[8:1],,4,5,6,7,
{16}8h[4:1],,,,1,2,8,7,2,3,7,6,3,4,6,5,4-8[8:1],,,,4,,6-2[8:1],,1b,,6,,,,,,
{16}8-4[8:1],,3,,8,,2^5[8:1],,5p1[8:1],,7,,1,8,7,6,5-8[8:1],,2,,5,,3h[4:1],,1,,7-4[8:1],,5,4,3,2,
{16}1h[4:1],,,,8,7,1,2,7,6,2,3,6,5,3,4,5-1[8:1],,,,5,,2w6[8:1],,,,2,,,,,,
{8}E6f/B5/B6/2-4[8:1],2,8,8,5-1[8:1],5,6,6,7-5[8:1],7,1,1,4-8[8:1],4,3,3,2>5[8:1],2,7,7,
{16}A8,E8,E7,A6,A2,E2,E1,A8,
{8}5h[4:1],,8,2-5[8:1]/6-1[8:1],,26,,,
{16}4,7,3,6,2,5,1,4,8-3[8:1],,,,86,,,,
{16}4x,7,3x,6,2,5,1,4,8v3[8:1],,,,68,,,,
{16}4x,5,3x,6,2,7,1,8,1w5[8:1],,,,1,,,,
{16}7,6,5,4,3,2,1,8,
{24}7/E4,E5,E6,E7,E8,E1,E2,E3,E4,E5,,,
||
||2nd
drop
{8}7x-4[8:1],7,7/1>5[8:1],1,
{16}1/6,7,8,1,2,3,4,5,
{8}2x-5[8:1],2,2/8<4[8:1],8,
{16}3/8,2,1,8,7,6,5,4,
{8}7x-4[8:1],7,7/1>5[8:1],1,
{16}1/6,7,8,1,2,3,4,5,
{16}6/2x,,1,8,2,7,3,6,4b-8[8:1]*-7[8:1],,,,4,,,,
{8}1-5[8:1],1,1/7,7,
{16}48,37,26,15,8,7,6,5,
{8}8-4[8:1]/4,8,2/8,2,
{16}15,26,73,48,1,2,3,4,
{8}1-5[8:1]/5,1,1/7,7,
{16}48,37,26,15,8,7,6,5,
{16}4/1x,8,7,6,5,4,3,2,1,8,7,6,5,4,3,2,
{24}1b,2,3,4,5,6,7,8,1,2,3,4,5,6,7,8,1,2,3,4,5,6,7,8,
||final
rush
{16}1b,,6,2bhx[8:1],,8,3bxh[8:1],,,,4,4,
7bh[8:1],,3,6bh[8:1],,1,5bh[8:1],,,,8,1,2,3,6,5,4,3,
{16}2,1,8,7,2bh[8:1],,6,3bh[8:1],,8,4bh[8:1],,,,5,5,
8bh[8:1],,4,7bh[8:1],,2,6bh[8:1],,3,4,
{16}5,6,7,8,
{32}51,4,3,2,1,8,7,6,
{1}1bpp4[2:5]/5bpp4b[2:5],,,
{16}3,4,2,5,1,6,8,7,5,6,4,7,3,8,2,1,
{24}2x,3,4,5/8x,7,6,5/1x,2,3,4/7x,6,5,
{32}4/2x,3,4,5,6,7,8,1,2/5x-1b[8:1],4,3,2,1,8,7,6,5hb[8:2],
{1},
E
