&title=ASGORE
&artist=Toby Fox
&first=0.637
&des=Kurage
&lv_5=14
&inote_5=(113)
{4}2,1,3h[4:2]/7,,6,7,5h[4:2]/1,,4,3,{8}7h[4:2],6,5,4,{4}3,6,4h[8:3]/5h[8:3],,
{4}7,8,6h[4:2]/2,,1,5,2h[4:2]/4,,{8}7,1,7,8,26,,48,,{16}2,{32}7,6,{8}5,1,28,3h[4:2]/7h[4:2],,,,
{1},{4},,,
(205)
{4},
(229.7)
{4}
2,,1,,
{8}
3h[4:1]/4b,,8,,42,2,8,,6/5h[4:1],,8,4,6,,85,,
7,7,3,3,4,4,2,,4h[4:1]/6,,8,,4/2h[4:1],,8,,
6h[4:1]/5,,1,,57,7,1,,3/4h[4:1],,1,5,3,,18,,
2,2,6,6,4,4,8,,
{4}
63,,81,,
{8}
3b/4b,34,34,34,34,34,2h[4:1],,4h[4:1],,6,6h[4:1],,8,8,,
7b/5b,75,75,75,75,75,8h[4:1],,6h[4:1],,4,4h[4:1],,2,2,,
3b/6b,36,36,36,36,36,5,5,4,4,6,6,5,5,8,1,
7,7,5,5,3,3,1,1,
{4}
7,,8,,
{8}
6h[4:1]/5b,,1,,57,7,1,,3/4h[4:1],,1,5,3,,14,,
2,2,6,6,5,5,7,,5h[4:1]/3,,1,,5/7h[4:1],,1,,
3h[4:1]/4,,8,,42,2,8,,6/5h[4:1],,8,4,6,,81,,
7,7,3,3,5,5,1,,
{4}
36,,18,,
{8}
6b/5b,65,65,65,65,65,7h[4:1],,5h[4:1],,3,3h[4:1],,1,1,,
2b/4b,24,24,24,24,24,1h[4:1],,3h[4:1],,5,5h[4:1],,7,7,,
6b/3b,63,63,63,63,63,4,4,5,5,3,3,4,4,1,7h[8:5],
{1}
3h[4:2],
{4}
2,,4,,
{8}
6,5,6,5,6h[8:3],,,5,,5,6,6,5,,,,
2,3,2,3,2h[8:3],,,3,,3,2,2,3,,,,
7,8,7,8,7h[8:3],,,8,,8,7,7,8,,,,
4h[8:3]/5,,,5h[8:3],,,4,,36,36,,5h[8:3],,,4,,
{8}
2h[8:3],,4,4h[4:2],,,8,8h[8:3],,6,6h[4:1],,4,,28,,
7h[8:3],,5,5h[4:2],,,1,1h[8:3],,3,3h[4:1],,5,,17,,
8h[8:3],,6,6h[4:2],,,4,4h[8:3],,2,2h[4:1],,8,,{16}1,8,1,8,
{8}
2h[4:3],,,4h[8:5],,,,,5h[4:3],,,6h[8:3],,,,,
{8}
75,7,3,8,71,,2,2h[4:1],,3,34,54,6h[4:1],,4b,,
75,7,3,8,71,,2,2h[4:1],,3,34,54,6h[4:1],,2b,,
75,7,3,8,71,,2,2h[4:1],,3,34,54,6h[4:1],,8b,,
7h[4:1]/3,,1,1h[4:1],,3,3,,42,42,,5h[4:1]/4h[4:1],,,63,,
24,2,6,1,28,,7,7h[4:1],,6,65,45,3h[4:1],,5b,,
24,2,6,1,28,,7,7h[4:1],,6,65,45,3h[4:1],,7b,,
24,2,6,1,28,,7,7h[4:1],,6,65,45,3h[4:1],,1b,,
2h[4:1]/6,,8,8h[4:1],,6,6,,57,57,,4h[4:1]/5h[4:1],,,36,,
75,7,4,8,71,,2,2h[4:1],,3,34,54,6h[4:1],,2b,,
75,7,3,8,71,,3,3h[4:1],,4,45,65,7h[4:1],,3b,,
65,6,2,8,71,,4,4h[4:1],,5,65,76,8h[4:1],,4b,,
7h[4:1]/3,,1,1h[4:1],,3,3,,42,42,,5h[4:1]/4h[4:1],,,63,,
24,2,5,1,28,,7,7h[4:1],,6,65,45,3h[4:1],,7b,,
24,2,6,1,28,,6,6h[4:1],,5,54,34,2h[4:1],,6b,,
34,3,7,1,28,,5,5h[4:1],,4,34,23,1h[4:1],,5b,,
2h[4:1]/6,,8,8h[4:1],,6,6,,57,57,,4h[4:1]/5h[4:1],,,36,,
{1}
1>8[4:25],,,,,,,
{8}
7b/8b,,,4b/5b,,,1b/2b,,
3b/7b,7,71,7,75,7,3,3,5,5,1,1,7,,18,,
6b/2b,2,28,2,24,2,8,,75,,2,34,,6,57,,
18,1,7,7,3,3,5,5,1,1,3,3,7,,15,,
3b/7b,7,71,7,75,7,1,,24,,7,65,,18,27,,
4b/8b,4,46,4,42,4,6,6,2,2,8,8,4,,37,,
5b/1b,5,53,5,57,5,3,,24,,7,56,,3,24,,
81,8,2,2,6,6,4,4,8,8,6,6,2,2,8,8,
{1}
8h[4:4]/4h[4:6],{4},,,
(221.7)
{4},
(229.7)
{1}2,4,{4}5,,6,,{1}8,
{1}7,5,{4}4,,3,,{4}1,,,
(234.7)
{4},
(229.7)
{8}1,8,1,8,1h[4:1],,3h[4:1],,4h[8:3],,,5,,,3,4,2h[8:3],,,8h[4:1],,6,8,,{4}2h[4:4],,,,
{8}8,1,8,1,8h[4:1],,6h[4:1],,5h[8:3],,,4,
(230.7)
{4},
(229.7)
{8}6,5,7h[8:3],,,1h[4:1],,3,1,,{4}7h[4:4],,,
(230.7)
{4},
(229.7)
{8}
1b,5,64,3h[8:1],7h[8:1],1,42,5h[8:1],3,3,4,1,1,5,3,7,
2,6,75,4h[8:1],8h[8:1],2,53,6h[8:1],4,4,2,2,8,8,6,2,
7,3,42,5h[8:1],1h[8:1],7,82,3h[8:1],7,7,5,6,6,2,7,1,
5,5,5,3,3,3,8,8,71,,41,,74,,71,,
8b,4,35,6h[8:1],2h[8:1],8,57,4h[8:1],6,6,5,8,8,4,6,2,
7,3,24,5h[8:1],1h[8:1],7,46,3h[8:1],5,5,7,7,1,1,3,7,
2,6,57,4h[8:1],8h[8:1],2,17,6h[8:1],2,2,4,3,3,7,5,8,
2b,2,2,4,4,6,57,7,4,4,5,5,3,3,4,1,
7b,7,7,5,5,3,42,2,5,5,4,4,6,6,5,8,
2b,2,2,4,4,6,57,7,4,4,5,5,3,3,4,1,
7b,7,7,5,5,3,42,2,5,5,4,4,6,6,36,,
{24}1b/8b,27,36,{8}45,,{24}1b/2b,3,4,5,6,,,,,{4}7b/8b,
{24}1b/2b,83,74,{8}56,,{24}1b/8b,7,6,5,4,,,,,{4}3b/2b,
{24}8b/7b,16,25,{8}34,,{24}8b/1b,2,3,4,5,,,,,{4}6b/7b,
{24}8b/1b,72,63,{8}45,,{24}8b/7b,6,5,4,3,,,,,{4}2b/1b,
{24}1b/8b,2b/7b,3b/6b,{8}4b/5b,{4},,,{1},,,
