&title=Stand Up!!!!
&artist=鈴木結愛(CV:西 明日香)/佐藤陽菜(CV:明坂聡美)/ 高橋 葵(CV:荻野可鈴)/田中心春(CV:大橋彩香)
&lv_6=14
&des_6=GANNETZ!
&first=1.32
&wholebpm=185
&demo_seek=
&demo_len=
&inote_6=(185)
{16}
1h[8:1],,5h[8:1],,2h[8:1],,6h[8:1],,3h[8:1],,7h[8:1],,4h[8:1],,8V64[4:1],,
,,83,,,,2,,2w6[8:1],,,,2b,,,,
8h[8:1],,4h[8:1],,7h[8:1],,3h[8:1],,6h[8:1],,2h[8:1],,5h[8:1],,1v4[8:1],,
5,,15,,,,34,,2v5[8:1]/5v8[8:1],,,,2b/5b,,,,
47,,6,,3,,6,,25,,3,,6,,3,,
45,,{24}45,36,27,{16}18,,36,,1b^4[8:1],,,,17,,8,,
8-2[8:1],,4,,8-6[8:1],,4,,8,,4w8[8:1],,35,,4bpp8[8:5]*qq8[8:5],,
,,,,,,,,,,,,,,,,
2V48[4:1]/8,,7,,26,,5,,5,,5-8[8:1],,,,5-2[8:1]/2,,
,,5-8[8:1]/7,,,,53,,,,12,,12,,38,,
4/7p4[8:3],,,,7,,2v5[8:1],,,,2<5[2:1],,,,2,,
,,,,,,,,,,
{8}
15,26,37,8-4[8:1]/4-8[8:1],,8v3[8:1]/4v7[8:1],,84,,
26,8V25[4:1],4,5q3[4:1],,3q8[4:1],,1,1,,
2^5[4:1],,5^8[4:1],,8^3[4:1],,6,,7^4[8:1],,
72,1-5[8:1],8-4[8:1],1-3[8:1],8qq5[8:3],1,8,
5,4,3,2,1-4[8:1],,1-6[8:1],,1-4[8:1],,1-6[8:1],,1,3,
2>6[4:1],,6,7,8V25[4:1],,2q5[2:1],,,,,,,,6,7,8,1<5[4:1],,
4,3,2,1,86,5,43,2,1,24,7/5-8[8:1],4-1[8:1],5>5[8:5],4,5b,,,,,,,,
{32}2,3,4,5,,,,,7,6,5,4,3,2,1,8,{8}7b/3,,
{16}
2h[8:1],,,,1/5pp8[8:3],,,,5/1v4[8:1],,,,1,,,,
37,,3/7-5[8:1],,,,3-1[8:1]/7-3[8:1],,,,3b/7b,,,,,,
,,15,,1V35[4:1]/5,,,,1/5V31[4:1],,,,1pp5[2:1],,8,,
7,,6h[8:3],,,,,,,,,,7h[8:1]/4h[8:1],,,,
2h[8:1]/6h[8:1],,,,4/8pp3[8:3],,,,48,,6,,6,,8^5[8:1],,
,,8^3[8:1],,,,8-4[8:1]/4,,,,84,,,,8,,
85,,1,,1v3[8:1]/5v7[8:1],,,,15,,,,3^8[8:1]/7^4[8:1],,,,
37,,,,8v3[8:1]/4v7[8:1],,,,84,,,,37,,37,,
26,,26,,1,5,1,5,2,6,2,6,3,7,3,7,
4,8,4,8,4,,1w5[8:1],,,,1b,,,,2,,
6,,8-2[8:1],,7-3[8:1],,8-4[8:1],,7-5[8:1],,8-2[8:1],,7-3[8:1],,8-4[8:1],,
7,,8,,7,,8,,1,,2-5[8:1]/7,,,,2,,
6-8[8:1],,4h[8:1],,6v1[8:1],,4h[8:1],,6-8[8:1],,4h[8:1],,6v1[8:1],,4h[8:1],,
6,,4,,3,,2,,1,,8/7v4[8:1],,,,78,,
1,,2,,34,,,,56,,4h[8:1]/7h[8:1],,,,7^5[8:1],,
3^1[8:1],,7^1[8:1],,3^5[8:1],,7^5[8:1],,3,,7,,,,37,,
2,,1-3[8:1]/8,,1-7[8:1],,1-4[8:1],,1-6[8:1],,1-5[8:1],,1-7[8:1],,1pp5[2:1],,
,,1,,,,6,,6-1[8:1]*-2[8:1],,,,6b,,,,
3/8V64[4:1],,,,4pp7[8:3],,,,2,,2v5[8:1],,,,2,,
7,,6,,5V71[4:1],,,,1v6[8:1],,2-5[8:1],,,,2,,
6,,7,,82,,1,,17,,2-7[8:1]/7-2[8:1],,18,,2<5[2:1]/7>4[2:1],,
,,{8}2b/7b,,,,,,
{16}
,3v8[8:1],4,2,5,3,7,,6,,5,,34,,7v4[8:1],8,6,1,7,,
3-6[8:1],,3,,7-1[8:1],,7,,3v4[8:1],,3,,8,,7,,6,,
5,4,5,3,5,2,5,1,5,8,5,7,5,6,5,4-1[8:1],6,3,5,4,,,8b,,8b,,,,
4b-1[8:1]/5b-8[8:1],,,,4b/5b,,,,
{4}3b/4b,6b/7b,3b/4b,6b/5b,1b/2b,4b/6b,
{32}7b/3b,64,5,,,,,,{4}5b/8b,2b/4b,1b/8b,
2b/3b,6b/7b,8b/6b,4b/5b,{32}3b/1b,48,57,6,,,,,
{4}2b/6b,3b/4b,7b/1b,4b/2b,7b/8b,4b/6b,3b/7b,{32}2b/8b,37,46,5,,,,,
{8}1b^4[8:1]/5b,,1/6b,7b,8b^5[8:1],,8/4b,3b,
{16}2b,3,4,5,8,7,6,5,{32}1,2,3,4,5,6,7,8,
{8}1b/5b,37,1bs5[4:1]/5bp8[4:1],,,,,,48,37,8bz4[4:1]/4bq8[4:1],,,,,,37,46,
{4}5bw1[8:1],,{4}4bw8[8:1]*-8[8:1],,5bw1[8:1]*p1[8:1]*q1[8:1],,
{8}4bw8[8:1]*z8[8:1]*s8[8:1],,,,2,3,4,5/7-1[8:1],8,37,
{16}3^1[8:1],,7^1[8:1],,3^5[8:1],,7^5[8:1],,3,,{8}7,8b,8b,
{8}4-6[8:1],4-2[8:1],4-8[8:1],4-1[8:1],4-7[8:1],4>4[4:1],4,4,,
{32}8qq3[8:3],1,2,3,4,5,6,7,8,{8},
1w5[8:1]*v4[8:1]*v6[8:1],,1b,,3,2,
{32}1-5[8:1],2,3,4,5,6,7,8,15,,,,,,,,6-2[8:1],5,4,3,2,1,8,7,62,,,,,,,,
4-8[8:1],5,6,7,8,1,2,3,48,,,,,,,,7-3[8:1],6,5,4,3,2,1,8,73,,,,,,,,
{16}
1,2,3,48,3,2,1,85,6,7,8,13,4,5,{8}6qq2[8:3]/1qq6[8:3],,,,,,
15,26,37,4-8[8:1],4,5-1[8:1],5,2-5[8:1],2,3-8[8:1],3,1-5[8:1],1,
8-4[8:1],8,7-3[8:1],7,6,6,
{24}2,3,4,8,7,6,1,2,3,7,6,5,2,3,4,1,2,3,8,7,
{8}6,,5b/4b,,1b/8b,2b/7b,,4b-1[8:1]/5b-8[8:1],,4b/5b,,
2h[8:2],,4h[8:2],,6h[8:1],5h[8:2],,1h[8:3],,3,7b,,
{32}4q1[8:1]/5p8[8:1],36,27,18,{8},4b/5b,,
7h[8:2],,5h[8:2],,3h[8:1],4h[8:2],,8h[8:3],,6,2b,,
{32}4z8[8:1]/5s1[8:1],36,27,18,{8},4b/5b,,
{16}
45,36,27,18,27,36,
45,36,27,18,27,36,
45,36,27,18,27,36,
45,36,27,18,27,36,
{8}4w8[8:1]*-8[8:1]*-7[8:1]/5w1[8:1]*-1[8:1]*-2[8:1],,4b/5b,,
{16}
3,5,,,5,8,,,{8}4-1[1:1],4,,,,,,,,,,2,2-6[8:1],2,7,7-4[8:1],7,
1b>1[8:14]*>1[8:14],,,,,,,,,,,,,,,,{16}6,5,4,3,{1},E,
