&title=Reverence
&artist=Vospi
&first=0
&des=KuSA
&wholebpm=172
&lv_5=12+
&inote_5=(172)
{1}
,5h[8:13]/4h[8:13],
{16}
,,,,,,,,,,,,4>1[4:9]/5<8[8:1],,,,5,,,,4,,,,8,,7,,6,,5,,4<7[8:1],,,,
4,,,,8,,8,,8,7,6,5,4>5[2:1],,,,,,,,,,,,,,,,6/5,,,3/4,,,1-4[8:5]/8,,,,,,,,,,
5,,,,5,,,,5,4,5,4,5,4,5,4,7>2[8:1],,7,,3<6[8:1],,,,8-4[8:1],,8,,5,,,,
2<7[8:1],,2,,6>3[8:1],,,,1-5[8:1],,1,,4-8[8:1],,,,2,,3,,4-1[8:1],,,,
6,,5,,4,,3,,2/4,,1,,8/7,,6,,7/5,,4,,3/6,,,,
1h[16:3],,,3h[16:3],,,5,,5,,4q8[8:1]*<7[8:1],,3,,,,,,,,5>2[8:1]/6p1[8:1],,,,,,,,
8/7p6[2:1],,,,1,,2,,3,,4,,5-1[8:1],,,,8p3[8:2],,,,1,,1,,1,,
1,5,2,6,3,7,4-1[8:1],,,,4b/6,,7,,8,,1,,2>5[8:1]/8,,,,2,,1<6[8:1],,,,
2>5[8:1],,,,1,,1,,
,,3/4,,,,5/6,,5/6<1[8:1],,,,6,,5>2[8:1],,,,8,,7-3[8:1],,,,8-4[8:1],,,,5,,
5<8[8:1]*>2[8:1],,,,5,,,,8h[16:3],,,6h[16:3],,,4,,4,,5>2[8:1]*p1[8:1],,6,,,,,,,,
4<8[8:1]/3v8[8:1],,,,,,,,1/2q3[2:1],,,,8,,7,,6,,5,,4-8[8:1],,,,1-6[8:1],,,,8,,,,
7,5,7,5,6-2[8:1],,,,,,,,8b-4[8:1]/3b,,,,8,,
3>8[4:1],,,,8<5[4:1],,,,5p8[4:1],,,,8p4[4:1],,,,4>1[4:1],,,,1-5[8:1],,,,,,
8,7,6,4,3,2,1,7,6,5,3,2,1,8,6,5,4-8[8:1],,,,4,,2>5[8:1],,,,2,,8,,,,
1-5[8:1]/6,,,,1,,
6<1[4:1],,,,1>4[4:1],,,,4q1[4:1],,,,1q5[4:1],,,,5<8[4:1],,,,8-4[8:1],,,,,,
1,2,3,5,6,7,8,2,3,4,6,7,8,1,3,4,5,8,7,6,5,4,3,2,1,8,2,7,3<6[8:1],,,,
3b/8h[4:1],,,,,,7h[8:1]/6h[8:1],,,,7h[8:1]/8h[8:1],,,,7h[8:1]/5h[8:1],,,,
7h[8:1]/1h[8:1],,,,7h[8:1]/4h[8:1],,,,7/3,,2-4[8:1]/6-1[8:1],,,,2/6,,,,
8-6[8:1],,8,,,,5-1[8:1],,4,,,,2-4[8:1],,,,5-1[8:1],,6,,,,8,,8<5[8:1],,,,
3h[4:1]/8,,,,,,3h[8:1]/4h[8:1],,,,2h[8:1]/5h[8:1],,,,5h[8:1]/6h[8:1],,,,
7h[8:1]/4h[8:1],,,,2h[8:1]/6h[8:1],,,,3/7,,8<5[8:1]/4>1[8:1],,,,8/4z8[8:4],,,,
1,,,,2,,,,3,,,,4,8,4,8,4,8,4,8,4,7,3,6,2,5,1,4,
8h[4:1],,,,6h[4:1],,,,4h[4:1],,,,2h[4:1],,,,3h[4:1],,,,1h[4:1],,,,
7h[4:1],,,,5h[1:1],,,,,,,,{12}8,8,,3,3,,4,5,4,4h[4:3],,,1,1,,6,6,,5,4,5,
{8}5h[4:1],,6h[4:1]],,4h[4:1],,3h[4:1],,1h[4:1],,5h[4:1],,4h[4:1],,
2pp7[8:8],,,,,,,,,,6h[8:3],,{32}8,1,2,3,
{16}
4bqq1[8:6],,,,,,,,,,8,,,,8,,,,8,1,8,1,7,2,6,3,5/4v7[8:1],,,,
6v1[8:1],,,,8v3[8:1],,,,2v5[8:1],,,,4v7[8:1],,,,6v1[8:1],,,,
8,,,,6/2,,,,3h[4:1]/4h[8:1],,,,5h[4:1],,4h[4:1],,,,6h[4:1],,5h[4:1],,,,,,
6h[8:1]/5h[8:1],,,,5h[8:1]/4h[8:1],,,,4h[8:1]/3h[8:1],,,,{24}3,4,5,
{8}6-1[8:1],,4-7[8:1],,2-5[8:1],,8-3[8:1],,6-1[8:1],,4-7[8:1],,2,,1q7[2:1]/5,,
7,6,5,4,3h[4:1],,4v1[8:2],,{16}3,,3,,2,,2,8,1,7,2,6,3,5,4,6,
3v1[8:1],,,,6v4[8:1],,,,8v2[8:1],,,,5v7[8:1],,,,3v1[8:1],,,,8v6[8:1],,,,
4,,,,1V38[2:1],,,,3,,,,8-4[4:1],,,,4-7[4:1],,,,7<1[2:1],,,,8,,,,,,,,
4<8[4:1],,,,,,,,1,,2,8,2h[4:1],,,,8,,7,1,7h[4:1],,,,2,,3,,5,4,6,5,6,,3,,
5-7[8:1]/4-2[8:1],,,,5s1[4:4]/4z8[4:4],,,,,,,,,,,,,,,,,,,,,,,,,,,,,,,,
{4}1p5[4:1],5p1[4:1],1p5[4:1],5,8q4[4:1],4q8[4:1],8q4[4:1],4,
1p4[4:1],3,8q5[4:1],6,1p4[4:1],4>1[4:1],1,4,
7p3[4:1],3qq1[4:1],1qq7[4:1],4,3p7[4:1],7qq5[4:1],5qq3[4:1],8,1<5[4:1],5,8>4[4:1],4,
1<5[4:1],5v8[4:1]*qq4[4:1],,,
{16}
1,,2,,3h[4:1]/8,,,,4,,3,,2h[4:1]/5,,,,1-6[8:1],,2-5[8:1],,1,,2,,,,6,,7/4,,,,
3,,5,,1h[4:1],,5,,7,,1,,5h[4:1],,1,,3,,5,,1h[4:1],,5,,7<4[8:1],,1,,7,,,,
8,,7,,1/6h[4:1],,,,5,,6,,4/7h[4:1],,,,8-3[8:1],,7-4[8:1],,8,,7,,,,3,,
2/5pp5[4:1],,,,5>2[2:1]*q2[2:1],,,,,,,,,,,,,,,,4,,,,,,,,5,,,,,,6/4,,
8<5[8:1]/2-7[8:1],,,,8>3[8:1]/2,,,,8<5[8:1]/4,,6,,8>3[8:1]/4,,2,,
8<5[8:1]/4-8[8:1],,,,
8>3[8:1]/4,,,,7,,6,,5,4,6,5,7,,8-4[8:1],,1,,2V47[4:1]/8,,,,7,,6,,,,
6/8,,7/1-5[8:1],,8/2,,3/1,,4,,4,,6,,,,
1>4[8:1]/7-2[8:1],,,,1<6[8:1]/7,,,,1>4[8:1]/5,,3,,1<6[8:1]/5,,7,,
1>4[8:1]/5-1[8:1],,,,
1<6[8:1]/5,,,,2,,3,,4,5,3,4,2,,1-5[8:1],,8,,7V52[4:1]/1,,,,2<6[4:1],,3,,,,
5,,4,,3,,2,6,2-5[8:1],6,2,6,2,,8,,1<6[8:1]/5>2[8:1],,,,
1q5[8:1]/5,,,,7/1-6[8:1],,8,,1/3,,2,,8>3[8:1]/4<7[8:1],,,,
8p4[8:1]/4,,,,2/8-3[8:1],,1,,8/6,,7,,1<6[8:1]/5>2[8:1],,,,
1q5[8:1]/5,,,,7/1-6[8:1],,8,,1/3,,2,,8>3[8:1]/4<7[8:1],,,,
8p4[8:1]/4p8[8:1],,,,8>3[8:1]/4<7[8:1],,,,8<8[4:5]/4>4[4:5],,,,,,,,,,,,
,,,,,,,,,,,,,,,,2/4,,1/8,,5/7-3[8:1],,3/4,,7b/1s5[8:14],,
