&title=Conflict (VILA Remix)
&artist=VILA
&first=0.82
&des=弦スカイ
&lv_5=14+
&inote_5=(53.333)
{4}
,1<3[8:7],,,,,5>5[8:6],4h,3h,2h,1-3-7-5[8:4],6h,7h,8h,5-7-1[8:1]/2-6[8:1],,
{12}
8-5-3[8:4],,3,3h[12:1],,2,2h[12:1],,1,1h[12:1],,8,8-4[8:1],,7,7h[12:1],,
{24}
,1,
{12}1<3[12:2],1,1,1,8,7,8-4[8:1]/1-7[8:1],,,,,,
2-4-6[12:3],4,4,
{24}
6-8-2[12:3],,6,7,8,,2>6[12:3],,4,,4,,6<2[12:3],,6,7,8,,2<2b[12:6],,,,,,6h[12:2],,,,,,7h[12:2],,,,,,Ch[12:2],,,,,,4h[12:1],,B6,B3,B7,B2,Ch[12:1],,E2,,E3,,E4h[12:1],,B5,B2,B6,B1,B7h[12:1],,C,,B3,,E7,,E3,,E1,C,E5,,E4/E8,,E7,C,E3,,E4/E2,,8,7,6h[12:1],,5h[12:1],,4h[12:1],,3,,2>3-5<6-2[12:14]/4-8[12:2],,,,,,,,,,,,8-4[12:2],,,,,,,,,,,,4-8b[12:2],,,,,,,,
(160)
{16}
,,,,,,,,,,,,,,,,
4/5,,,,3/6,,,,2h[8:1]/7h[8:1],,,,1h[8:1]/8h[8:1],,,2/7,2h[8:1]/7h[8:1],,,,1h[8:2]/8h[8:2],,,,,,7,,5/6,,2,,3/4,,,,7/8,,,,1,,2/3,,4,,5/6,,7-3-5[8:2],,,1,1h[8:2],,,,,,,,3/4,,,,4/5,,,,5/6,,,,8-5[8:1],,5-3[8:1],,3-7[8:1],,,1,1,,,2,2h[8:2],,,,,,,,6/7-3[8:1],,,,7/8,,,,8/1-5[8:1],,,,1/2,,,,2/3-7[8:1],,,,3/4,,,5,5w1[8:1],,,,Cf,,,,,,,,
{16}
2/5h[8:2],,,,3,,,4,4/5,,6,,7/5,,,8,8h[8:1],,,2,2-5[8:1],,4,,5/2,,6,,6-3[8:1],,7/4,,6-1[8:1]/8,,,,6/4,,,5,5h[8:1],,8,,7h[8:1],,6,,5h[8:2],,,1,1-7-4-8[4:1]*-3-6-2[4:1],,,,,,,,,,,,3-6[8:1]/7h[8:2],,,,3,,,8,8-4[8:1],,4,,3h[16:3],,,,2xv8[8:1]/5,2x,2x,2x,5/2x,,6,6,6v8[8:1],,,2,2h[8:1],,,,3,,3,,3,,3,4,5,,5,,6,,6,,
2,2,2,7,7,
{16}
7,1,8,1,8,1,8,2b-5[8:1]/7b-4[8:1],,,,2b/7b,,,,3,,2,,4/1h[2:1],,,,5,,,,B6,B7,E8,,B2,B3,E4,,B8,B1,E2,,B4,B5,E6,,7h[16:3],,,5,6h[8:1],,2h[16:3],,,4,3h[8:1],,8h[16:3],,,1,8h[8:4],,1,,,,,,2v7[8:1],,3,,4-8[8:1],,5,,
4b,,,,6,,7,,5/8h[2:1],,,,4,,,,B3,B2,E2,,B7,B6,E6,,B1,B8,E8,,B5,B4,E4,,2h[16:3],,,4,3h[8:1],,7h[16:3],,,5,6h[8:1],,1h[16:3],,,8,1h[8:2],,8h[16:4],,,,,,
2x/7x,3x/6x,4x-8[8:1]/5x-1[8:1],,3/6,,4/5,,2,,E8,,E7/3,,E6,,5/4,,E4,,6,,7,,8/1-5[8:5],2,3,,7,6,5,,2,3,4,,8,7,6,,1h[16:3],,,6,6/5h[8:1],,8h[16:3],,,3,3/4h[8:1],,1h[16:3],,,8,8/1h[8:1],,8h[16:4],,1h[8:2],,,,7v2[8:1],,
6,,5-1[8:1],,4,,5b,,E2,,E3/6,,E4,,4/5,,E6,,3,,2,,1/8-4[8:5],7,6,,2,3,4,,7,6,5,,1,2,3,,8h[16:3],,,3,3/4h[8:1],,1h[16:3],,,6,6/5h[8:1],,8h[16:3],,,1,1h[4:1]/8h[4:1],,,,,,,,2-7[8:1]/6-3[8:1],,,,2b/6b,,,,8-4[8:1],,,,8/3-6[8:1],,,,3/5v2[8:1]*v8[8:1],,,,5,,,,1-5[8:1],,,,1/6-3[8:1],,,,6/4v7[8:1]*v1[8:1],,,,4,,,,2-4[8:1]/6-4[8:1],,,,2-8[8:1]/6-8[8:1],,,,2w6[8:1]/6,,,,2,,,,2,2,4,3,7,7,5,6,4,4,1,3,5,5,8,6,3-5<6[8:1],,,,3/8-2>3[8:1],,,,8/5-7>8[8:1]*-1[8:1],,,,5,,,,6-4>3[8:1]/3,,,,6/1-7<6[8:1],,,,1/4-2<1[8:1]*-7[8:1],,,,4,,,,8<6[8:1]/4<6[8:1],,,,8>2[8:1]/4>2[8:1],,,,8p4[8:1]/4p8[8:1],,,,8/4,,,,1,1,5,5,2,4,3,3,7,5,6,6,
{32}
4,3,2,1,8,7,6,5,
{16}
4p8[8:2]/8,,,,8qq2[8:4],,,,5h[8:1],,,,4h[8:1],,,,3q7[4:1],,,,7pp5[2:1],,,,2h[8:1],,,,3h[8:1],,,,4>8[4:1],,6,,8>4[4:1],,6,,4w8[8:1],,,,C,,,,6-2[4:1],,8,,2-6[4:1],,4,,6w2[8:1],,,,C,,,,4q8[8:1],,,,5p1[8:1],,,,6q2[8:1],,,,7p3[8:1],,,,7/8q4[8:1],,,,8/1p5[8:1],,,,1/2q6[8:1],,,,2/3p7[8:1],,,,3/4-1[8:1],,,,4-7[8:1]/8,,6,,4-2<1[8:1]/8,,2,,8/4-6<7[8:1],,6,,8/4,,,2,2-5[8:1],,,6,6-1[8:1],,,,A6,,,,
{16}
3,4,3,4,2,1,2,1,2,8,2,8,3,6,3,5,3,4,3,2,3,1,4,8,5,7,5,6,5,4,5,3,5,2,5,1,4,8,3,7,2,6,1,5,8,4,7,3,
{32}
8,1,2,3,5bh[8:1],,,,1,2,3,4,6bh[8:1],,,,2,3,4,5,6,7,8,1,
{16}
2b/6b,,,,4-8[8:4]/8,,,,,,,7h[16:1],,,,6h[16:1],,,,5h[16:1],1,2,3h[8:1],,8,7,6h[8:1],,E2,E3,E4h[8:1],,E8,E7,E6h[8:1],,1h[16:3],,,5,5/2,,3h[16:3],,,7,7/4,,5h[16:3],,,1,1<8-4<5-1[8:4]/4,,3h[8:3],,,,,,,,,,,,,,2q5[8:4],,,,,,,6h[16:1],,,,7h[16:1],,,,8h[16:1],3x,3x,3x,3hx[16:3]/6,,,5,,5-3[8:1]*-8[8:1],,,,,,,,2,1,2,1,3,4,3,4,2,5,2,5,1,6,1,6,7h[8:2]/8h[8:2],,,,,1,1,8,8-4[8:1],7,7,8,8b,,,,
5b/6b,,,3b/4b,,,1b/8b,,,4b/5b,,,6b/7b,,,1b/8b,,,2b/3b,,,4b/5b,,,1b/8b,1b/8b,1b/8b,1b/8b,1b-5b[213.333#8:1]/8b,,,7b-3[213.333#8:1],,,2b-6b[213.333#8:1],,,8b-4[213.333#8:1],,,3b-7b[213.333#8:1],,,6b-2[213.333#8:1],,,4b-8b[213.333#8:1],,,5b,,,1b/2b,1b/2b,1b/2b,1b/2b,1b/2b-5b[213.333#8:1],,,2b/6b-1[213.333#8:1],,,2b-7b[213.333#8:1]/6b,,,6b-3[213.333#8:1]/2b,,,6b/1bv4b[213.333#8:1],,,1b/5bv8[213.333#8:1],,,5b/1b-4[213.333#8:1]*-6[213.333#8:1],,,1b,,,
5,5,5,5,5,5,5,5,
{32}
5,6,7,8,1,2,3,4,5h[8:1],,,,4,3,2,1,
{48}
8,7,6,5,4/8,3/7,2/6,1/5,8/4,3,2,1,
{64}
8h[16:3],,,,,,,,,,,,
1b,,2,,3h[16:1],,,,,,7b,,6,,5h[16:1],,,,,,2b,,3,,4h[48:10],,,,,,6b,,7,,8h[16:1],,,,,,3bx/7bx,,2x/6x,,1x/5x,,4x/8x,,,,,,
{16}
2b-5[8:1],,5-2[8:1],,2,6,6,,7>2[8:1],,3,3,7<4[8:1],,3-6[8:1],3,7,,3,,8-4[8:1],,7,,8/6,,
{24}
6,7,8,1,2,3,4,5,6,
{16}
2b/7b-4[8:1],,4-7[8:1],,7,3,3,,2<7[8:1],,6,6,2>5[8:1],,6-3[8:1],6,2,,6,,1-5[8:1],,2,,1/3,,
{24}
3,2,1,8,7,6,5,4,3,
{16}
2b-5-3[8:1]/6b,,7,,8-5-7[8:1]/2,,1,,8-4[8:1],,2,2,8-3[8:1],,3,,8/4-8[8:1],,5,,4/6>3[8:1],,7,,6/1,,
{24}
,,,2,1,8,7,6,5,
{16}
1<6[8:1]/4,,,5,5/1>4[8:1],,,5,1-5[8:1]/5,,,5,1/5,,,,8>3[8:1]/4,,,4,4/8<5[8:1],,,4,8-4[8:1]/4,,,4,8/4,,,,1,5,1,5,
{24}
2-8[8:1],3,4,6,7,8,
{16}2>5[8:1],,7,6,2<7[8:1],,7-3[8:1],6,2,,5,,4<8[8:1],,5,,6/4,,,,1/5,2/6,3/7,4/8,1b-6[8:1]/5b-2[8:1],,,1/5,1/5-8[8:1],,,,5/3-8-4[8:2],,4,4,3/6-2-6[8:2],,5,,6/3>8[8:1],,4,,3,,,,7,6,5,4,8,7,6,5,4b<5v7>8[8:4]/8b,,,3,3/4,,,2,2-6[8:1]
,,,,C,,,,5b>4v2<1[8:4]/1b,,,6,6/5,,,7,7-3[8:1],,,,C,,,,1-3[8:1]*-4[8:1],,,,1-7[8:1]*-6[8:1]/5,,,5,1/5w1[8:1],,,,5b,,,,7-3[8:1],,,,7>2[8:1]*<4[8:1],,,,
{16}
7w3[8:1],,,,7b,,,,1bs5z1b[8:8],,,7,7b-1-3-5-7[8:6],,,,,,,,,,,,,,,,,,,,5,6,7,8,1/5,2,3,4,
{16}5/1,2,3,4,2,3,4,5,
{24}1,2,3,8,1,2,7,8,1,6,7,8,5p2[8:6],
