&title=Tempestissimo
&artist=t+pazolite
&first=0
&des=sreCP
&lv_5=13+
&inote_5=(462){128}
,,,,,,,,,,,,,,,,,,,,,,,,,,,,,,,,,,,,,,,,,,,,,,,,,,
(231)
{4}C,,,
{8}B6,B5,E5,,B4/B3,,B1/B2,,B7/B8,,
{2}56,34,12,7<4[2:1]/8,
{8}3,,,,,,1,2,
{8}3,,4/5,,6,,3,,
{16}4x,5x,4,5,4,5,4x,5,4,5,4,5,4,5x,4,5,
{8}4x,,,,,,1/7qq5[16:13],,
{8}2,,,,,,1,2,
{8}3,,5/6,,7,,1/8,,
{4}3/6,,E8/B8/B1/E2,,4/5,,B7/C/B2,,
{1}2q4[16:23]/7pp5[16:23],,
{16}4xh[4:2]/5xh[4:1],,,,,,,,6h[16:3],,,3h[16:3],,,5h[4:1],,
{16},,2,,1,,2,,2,,1,,1,,,,
{16}4b/5,,4/5b,,3,,,,7,,,1,,,8,,
{16},,3,4,3,,3,,2,,2,,1,,,,
{16}8/1bx,,8bx/1,,7,,,,3,,,5,,,4,,
{16},,7,8,7,,7,,3,,3,,4,,4,,
{4}5xh[8:1]/6xh[8:1],6h[8:1]/7,7h[8:1]/8h[8:1],1h[8:1]/8,
{4}1h[8:1]/2h[8:1],2h[8:1]/3,3h[8:1]/4h[8:1],5h[8:1]/4,
{8}6,6,3,3,1,1,8,8,
{16}6,,6,5,4,3,,,3-5b[8:1],,3,,3b,,,,
{8}8xh[1:1]/1x,1x,1x,1x,1,1,1,1,
{8}1,1,1,1,1x,
{16}B1,C,B5,,,,
{8}5xh[1:1]/6x,6x,6x,6x,6x,6,6,6,
{8}6,6,6,6,6x,
{16}B6,C,B2,,,,
{8}2xh[1:1]/8x,8x,8,8x,8,8x,8,8,
{8}8,8,8,8,8x,
{16}B8,C,B4,,,,
{8}4xh[2:1],3x,3x,3x,3x,3/4h[2:1],3,3,
{8}3,3,2,1,8,7,6,,
{16}1b-5[8:1],,,,7b-3[8:1],,,,2b-4[8:1],,,8b-6[8:1],,,8b,,
{16},,,2x,1x,2x,1x,,8,,,7h[16:3]/5h[16:1],,,,,
{16}1b-4[8:1],,,,8b-3[8:1],,,,6bx-2b[8:1],,,5b-1[8:1],,,5b,,
{16},,,8x,7x,8x,7x,,6x,,,7h[16:3]/5h[16:1],,,,,
{8}2/6-4[8:1],2x,2/6,2x,2/6-8[8:1],2x,2/6,2x,
{8}2,2,2,2,2-4[8:1],2,2,,
{8}1x/8x,1x/8x,2x/7x,2x/7x,3x/6x,3x/6x,4x/5x,4x/5x,
{16},,4,5,6,7,8,1,2/7,6,5,4,3,2,,,
{8}3/7,3-1[8:1]/7-1[8:1],,3-6[8:1]/7,,3/8-4[8:1],,8/2,
{8},1,1-3[8:1]*-4[8:1],,1-7[8:1]*-6[8:1],,1,,
{8}3,3-6[8:1]/7-2[8:1],,3/7V14[2:1],,7,,2,
{8},8,8w4[8:1],,8,,C,,
{8}7/3,7-5[8:1]/3-5[8:1],,7^1[8:1]/3^1[8:1],,7x/3-7[8:1],,3,
{8},5,5-7[8:1]*-8[8:1],,5-3[8:1]*-2[8:1],,5,,
{8}7,7-2[8:1]/3-6[8:1],,7/3>7[2:1],,3x,,4,
{8},3,4w8[8:1],,4,,C,,
{4}1>5[2:1],6,5<2[2:1],8,
{4}2V47[2:1],5,7>1[4:1],,
{4}6^5-3^1[2:1],2,1^8^7^6^4[2:1],3,
{4}4V28[2:1],1h[4:1],,,
{8}7/5,6,6,6,2/4,3,3,3,
{8}6/8,7,7,7,3/1,2,2,2,
{16}8,7,8,7,8,7,8,7,1,6,1,6,1,6,1,6,
{32}5,4,3,2,1,8,7,6,5,4,3,2,1,8,7,6,
{8}5-1[8:1],,,,
{8}2-6[8:1],,2,,7-4[8:1],,7,1,
{8},2v5[8:1],5V38[4:1],2,7-4[8:1],,7,,
{8}1-5[8:1],,1/7,,6-2[8:1],,6,4,
{8},3v6[8:1],6V41[4:1],5,8-5[8:1],,8,,
{8}2-4[8:1],,2/5-7[8:1],,5,,1v4-2[4:1],1,
{8},7-4[8:1],8,7,1-5[8:1],,1,,
{8}6-8[8:1],,6,,2-4[8:1],,2,8,
{8},6v5[8:1],6,6,2h[2:1],,,,
{8}7-2[8:1],,7/3-6[8:1],,3-1[8:1],,3,4,
{8},6v3[8:1],3V51[4:1],6,2-7[8:1],,2,,
{8}6-1[8:1],,6,,4-1[8:1],,4,5,
{8},6V84[4:1],4,6,2-5[8:1],,2,,
{8}6-2[8:1],,6,,3-8[8:1],,3,5,
{8},6v1[8:1],1V74[4:1],6,3-8[8:1],,3,,
{8}7-3[8:1],,7,,2-5[8:1],,2,8,
{8},7v4[8:1],4V61[4:1],7,2,,,,
{16}5,6,5,6,5,6,5,6,5h[1:0],4h[1:0],5h[1:0],4h[1:0],5h[1:0],4h[1:0],5h[1:0],4h[1:0],
{8}2-5[8:1],1,7-4[8:1],8,,,,,
{16}4,3,4,3,4,3,4,3,4h[1:0],5h[1:0],4h[1:0],5h[1:0],4h[1:0],5h[1:0],4h[1:0],5h[1:0],
{8}7-4[8:1],8,2-5[8:1],1,Ch[4:1],,,,
{8}1/2-6[8:1],,2,,8/7-3[8:1],,7,1,
{8},3,3,4,4,5,5,6,
{8}6,75,57,48,48,13,13,2,
{16}2,,2,7,2,7,2,7,2,7,2,7,2,7,2,7,
{1},
{8},,,,,,1<6[16:1]/2>5[16:1],,
{8}A1/D2f/A2,,8>3[16:1]/7<4[16:1],,A8/D8f/A7,,1>4[16:1]/8<5[16:1],,A1/D1f/A8,,4>1[16:1]/5<8[16:1],,A4/D5f/A5,,,,
{8}1-5[8:1],2-4[8:1],1,2,8-4[8:1],7-5[8:1],8,7,
{8}1-5[8:1],8-4[8:1],1-3[8:1],8-6[8:1],1,8,,,
{16}1,8,1,8,2,7,1,8,2,7,1,8,3,6,1,8,
{32}7,6,5,4,3,2,1,8,7,6,5,4,3,2,1,8,
{8},4,,4,
{8}4h[1:1]/5h[2:1],,,,,,7,7,
{8}7,,6,,45,,3,,
{4}1-5[8:1],1-3[8:1],1-6[8:1],1x/8x-4[8:1],8-2[8:1],8-6[8:1],8w4[8:1],B8,
{8}6,6,3,3,5,5,4,4,
{8}3,3,2,2,
{16}1,1x,1,,8,8,8x,,
{16}4,5,4,,3,6,3,,2,7,2,7,1,8,1,8,
{8}1-5[1:3],,2,,1h[4:1],,,,
{8}1h[4:1],,,,1h[4:1],,,,
{8}1h[4:1],,,,1h[8:1],,,,
{8}4,4,6,6,4,4,6,6,
{16}3,6,3,6,3,6,3,6,2,7,2,7,2,7,2,7,
{8}1-5b[8:1],2-4b[8:1],1,2,8-4b[8:1],7-5[8:1],8,7,
{8}1-5[8:1],8-4[8:1],1-3[8:1],8-6b[8:1],1,8,,,
{16}1,8,2,7,1,8,2,7,1,8,2,7,1,8,2,7xh[1:0],
{32}6,5,4,3,2,1,8,7,6,5,4,3,2,1,8,7,
{8},4h[16:1],,3h[16:1],
{8}4h[2:1]/5h[1:1],,,,,,7,8,
{8}1,,2,,3,,4,,
{2}6-8[8:1]*-3[8:1],2-7[8:1]*-4[8:1],8-6[8:1]*-2[8:1],4-1[8:1]*-7[8:1],
{8}4/7,6,5,6,2/5,3,4,3,
{8}1/6,7,8,7,3/8,2,1,2,
{16}1,3,1,3,1,,,,8,6,8,6,8,,,,
{16}4,2,4,2,4,,,,5,7,5,7,5,,,,
{8}3/7,3-1[8:1]/7-1[8:1],,3-6[8:1]/7,,3/8-5-3[4:1],,8/2,
{8},1,1-3^4[8:1]*-4[8:1],,1-7^6[8:1]*-6[8:1],,1,,
{8}3,3v6[8:1]/7-2[8:1],,3/7V53[4:1],,7,,2,
{8},8,8w4[8:1],,8,,C,,
{8}7/3,7-5[8:1]/3-5[8:1],,7^1[8:1]/3^1[8:1],,7x/3-7[8:1],,3,
{8},5,5-7^8[8:1]*-8[8:1],,5-3^2[8:1]*-2[8:1],,5,,
{8}7,7v2[8:1]/3-6[8:1],,7/3>7[2:1],,3x,,4,
{8},3,4w8[8:1],,4,,C,,
{4}1>5[2:1],6,5<1[2:1],8,
{4}1>5[2:1],6,5<1[2:1],7,
{4}1>5[2:1],6,5<1[2:1],8,
{4}1>5[2:1],6,7,,
{8}7/5,6,6,6,2/4,3,3,3,
{8}6/8,7,7,7,3/1,2,2,2,
{16}8,7,8,7,8,7,8,7,1,6,1,6,1,6,1,6,
{32}5,4,3,2,1,8,7,6,5,4,3,2,1,8,7,6,
{32}5/1,2,3,4,5,6,7,8,1,2,3,4,5,6,7,
{32}8-5[32:40],1-4[32:39],,,
,,,,
{8}8b,,,,,,,,,,,,,,
{32}18,27,36,45,,7/8b,
,E
