&title=New World
&artist=FELT
&first=0.025
&des=KuSA
&lv_5=12+
&inote_5=(195)
{1}
,
{8}
,,,,5<4[4:4],,,,,,,,,,,,
1/8,,3,4,2h[4:1]/5,,5,,7h[4:1]/4,,4,,
3h[4:1]/5,,5,,7/5>8[8:4],,7,,6,,6,,5/8-3[8:1],,6,,
8-5[8:1]/4,,3,,2,4,5,7h[4:1],,5,4,3h[4:1],,5,6,7,
1-5[8:1]/8,,21,,4,3,2,1/8-4[8:1],,7-3[8:1],,6qq8[2:1],,,,,,,
{16}2,1,2,1,{8}3-5[8:1],3,6,7-1[8:1],7,2,3-5[8:1],3,6,7-1[8:1],7,2,
3^6[8:1],,8,,7-5[8:1],7,4,3-1[8:1],3,8,7-5[8:1],7,
4pp8[8:4],4,3,3,2,2,1-5[8:1],,7-4[8:1],7,3,2-5[8:1],2,6,7-3[8:1],7,2,
1-4[8:1],1,5,6<2[16:3],,3,,4,5,36,1/8h[4:1],,
{24}2,3,4,8,7,6,{8}5b<4[8:3]/1b,,,,,1,1,2/8-4[8:1],,
3,,3,4,3/5<8[8:1],,3,,3/1-5[8:1],,3,,3/4<7[8:1],2,1-5[8:1],,
6,,6,5,6/4>1[8:1],,6,,8p3[8:2]/6,,6,,7,7,2/8<4[4:1],,
4>8[4:1],,8V64[4:1],,4V28[4:1],,8z4[4:1],,4,,1,,6,6,5h[4:1]/7,,
1<6[8:1],,3,,1p5[8:1],,3,,8>3[8:1],,6,,18,18,2b/7b,,
6-1[8:1],5,6,3-5[8:1],7,3,6-1[8:1],4,6,{16}2,3,4,8,7,6,
5-1[8:1]/2-5[8:1],,,,2/5,,,,3-8[8:1],,7,,3,,6-4[8:1],,2,,6,,3-8[8:1],,5,,3,,
7,,7/1,,2,,3/8,,7,,6/2,,3,,4b/8b-4[8:1],,,,
3,2,1,8,5,6,7,8,4,3,2,1,6-4[8:1],,6,,7-3[8:1],,7,,5-1[8:1]*-7[8:1],,,,,,,,
2,3,4,5,8,7,6,5,1,2,3,4,6,7,8,1,2/4,,3,,7/5,,6,,
4,5,4,5,3,5-1[8:1],2,5,{4}1bqq6[4:11]*pp4[4:11],,,,,,,,,,,,,,,,
1>4[8:5],,,,4>1[8:5],,,,8-5[8:5],,,,5-8[8:5],,,,
5h[4:7],6,,7,,8,,1<5[1:1],,2,,3,,4,5,3/6,
{8}12,3,5,78,6,4,1/3,4,5,8/6,7<4[8:1],7,2q6[8:1],2,7p3[8:1],7,1,1h[4:1],,
3-7[8:1],,1w5[8:1],,1b,,,,,6/5-1[8:1],,,,
7b/8b-4[8:1],,2h[4:1],,3q7[8:1],,1-5[8:1],,8h[4:1],,6p1[8:1],,7-3[8:1],,
2h[4:1],,4-7[8:1],,8q5[8:1],,6q2[8:1],,4w8[8:1],,4,,2/6,,
3p6[8:1]/7>2[8:1],,,,5-8[8:1],4,3,2,1-4[8:1],8,7,6-3[8:1],,
2-7[8:1]/6,,2/8-5[8:1],,4-1[8:1]/8,,6h[8:2]/4b,,8,6,4,
{16}2,1,8pp5[16:7],7,6<4[16:5],,8b,,,,,,,,,,
56,,34,,2,1,2,1,
{8}2b-5[8:1],,7h[4:1],,6p2[8:1],,8-4[8:1],,1h[4:1],,3q8[8:1],,
2-6[8:1],,7h[4:1],,5-2[8:1],,1p4[8:1],,3p7[8:1],,5w1[8:1],,5,,7/3v8[8:1],,
6,6,1b/5h[4:1],,8-4[8:1],6,8,1-5[8:1],3,1,8-3[8:1],6,8,
4q8[8:1],2,4,1-6[8:1]*-4[8:1],,1,,3/5,3-7[8:1]/5,,8h[4:1],,6-2[8:1],4,2b,,
1/8,1/8,2/7,{16}3,6,4,5,3qq7[16:9],6,4,5,{8}3b,,,,,,
8>3[8:1],,8<5[8:1],,8-3[8:1],,8-5[8:1],,8,,
2/4,3,5,6,4/7,6,1,1,7-4[8:1],3,1,,2-6[8:1],5,8>6[16:5],,4b,,1,,
7,8,1/6,1-4[8:1]/6,,1/6-3[8:1],,6/2-7[8:1],,2/5-8[8:1],,5b/3h[4:1],,
1,3,5,
{16}7,8,1qq4[16:7],2,3>5[16:5],,1b,,,,,,,,,,
43,,65,,7,8,7,8,{8}7b-4[8:1],7,2-5[8:1],2,
6-1[8:1],6,3-7[8:1],3,8<5[8:1],8,4>1[8:1],4,7,8,1,2,
4-8[8:1]/3,,6/4,,2/5-1[8:1],,5/7,,8-6[8:1],2-5[8:1],8-4[8:1],2,8,1,3b/7b,,
45,6,6,45,3,3,56,7,7,34,2,2,18,56,18,{16}3,4,2,,{8}2-6[8:1],,
5h[4:1],,7-3[8:1],1,3bp6[8:2],,,,,4/5,{24}2,3,4,8,7,6,
{4}5/1b>8[2:7],,,,,,,{16},,,,,,,,1>8[1:4],,
