&title=油断できないこの一瞬!
&artist=下村陽子「マリオ&ルイージRPG4 ドリームアドベンチャー」
&first=0
&des=feishu
&lv_5=13+
&inote_5=(196){1},
{16}B1,,B2,,B3,,B4,,B5,,B6,,B7,,B8,,
{16}E1,E2,E3,E4,E5,E6,E7,E8,
{32}1x,2x,3x,4x,5x,6x,7x,8x,1x,2x,3x,4x,5x,6x,7x,,
{16}8-5[4:1],,,,5>3[4:1],,,,7,,,,6,,,,1,,1,,2/8,,1,,1,,1,,2/8,,1,,
{16}8p1[4:1],,,,1q8[4:1],,,,2,,,,3,,,,
{16}1/2,,3,8,3,,1/2,,3,,1,,2,,8,,
{16}1-4[4:1],,,,4-1[4:1],,,,3,,,,2,,,,
{16}3,,3,,2/4,,3,,3,,3,,2/4,,3,,
{16}2qq2[4:1],,,,2>5[4:1],,,,7,,,,6,,,,
{16}3/6,,4,5,4,,3/6,,4-1[8:1],,4,,5,,,,
{8}8<5[4:1],,5>2[4:1],,2<7[4:1],,7<4[4:1],,
{8}4>1[4:1],,1<6[4:1],,6>3[4:1],,3>8[4:1],,
{8}8<5[4:1],,5>2[4:1],,2<7[4:1],,7<4[4:1],,
{8}3h[2:1],,,,7h[4:1],,4h[4:1],,
{8}2h[4:3],,,,,,1h[4:1],,
{8}3h[4:3],,,,,,4h[4:1],,5h[2:1],,,,4h[2:1],,,,
{8}3h[4:1],,2h[4:1],,1h[4:1],,8h[4:1],,
{8}1-5[8:1],7-3[8:1],1,7,2-6[8:1],8-4[8:1],2,8,
{8}3-6[8:1],7-2[8:1],3,7,4-7[8:1],8-3[8:1],4,8,
{8}5>2[8:1],1<6[8:1],5,1,4-1[8:1],8-5[8:1],4,8,
{8}3v5[8:1],7v1[8:1],3,7,2v5[8:1],6v1[8:1],2,6,
{1}Ch[4:7],,
{16}2b/7b,,2/7,,2/7,,2/7,,2/6b,,2/6,,2/6,,2/6,,
{16}3b/6,,3/6,,3/6,,3/6,,3/7b,,3/7,,3/7,,3/7,,4b/7,,
{16}4/7,,4/7,,4/7,,4/8b,,4/8,,4/8,,4/8,,
{16}5b/8,,5/8,,5/8,,5/8,,1b/5,,1/5,,1/5,,1/5,,
{16}4b/8b,,4/8,,4/8,,4/8,,3b/7b,,3/7,,3/7,,3/7,,
{16}2b/6b,,2/6,,2/6,,2/6,,1b/5b,,1/5,,1/5,,1/5,,
{16}1/6b,,1/6,,1/6,,1/6,,1/7b,,1/7,,1/7,,1/7,,
{16}1/8b,,1/8,,1/8,,1/8,,2b/7b,,,,,,,,
{8}2h[1:1]/7<4[8:1],,7,,3<6[8:1],,3,,
{8}3<6[8:1],,2/3,,4>1[8:1]/7h[4:1],,4,,
{8}6h[1:1]/2>5[8:1],,2,,8>3[8:1],,8,,
{8}4-7[8:1],,4/3h[4:1],,5h[4:1],,4h[4:1],,5h[2:3],,,,,,,,,,,,4h[4:2],,,,
(98){8}5b-1[8:1]b,,5b>2[12:1]b*<8[12:1]b,,5bw1[12:1]b,,5b,,
(196){16}8-6-3[2:1],,,,6,,,,5,,,,4,,,,
{16}3x/6x,,5,4,5,,3/6,,5,,5,,4,,5,,
{16}1q8[4:1],,,,8p1[4:1],,,,7,,,,6,,,,
{16}1x/6x,,8,7,8,,1/6,,8,,8-5[8:1],,7,,8,,
{16}1<4[4:1],,,,4v2[4:1],,,,1,,,,8,,,,
{16}2x/7x,,1,8,1,,2/7,,1,,1-4[8:1],,8,,1,,
{32}5x,,,,6,,,,7,,,,8,,,,1,,,,2,,,,3,,,,4,,,,5x,,6,,7,,8,,1,,2,,3,,4,,5x,6,7,8,1,2,3,4,5,6,7,8,1,2,3,4,
{8}5xh[2:3],,B4,,E4,,B3,,
{8}E3,,B2,,4h[2:1],,B5,,
{8}6h[2:1],,B4,,3h[2:1],,E5,,
{8}7h[2:1],,B2,,5h[2:1],,B7,,
{8}3h[4:15],,,,,,,,,,,,,,,,4h[4:7],,,,,,,,,,,,,,,,
{8}6-8v1-3[4:3],,B6,,B5,,B4,,
{8}B3,,4,,5,,6,,
{8}2-4<6-1<8-4[4:3],,B5,,B4,,B1,,
{8}B8,,5,,6,,7,,
{8}8-6[4:1],,6-3[4:1],,5,,4,,
{8}5-8[4:1]/4z8[4:1],,4/5,,,,,,
{8}8pp8-5[2:1],,2,,,,,,8<4v2[2:1],,C,,,,,,
{32}1,,,,8,,,,2,,,,7,,,,1,,,,8,,,,2,,,,7,,,,1,,8,,1,,8,,1,,8,,1,,8,,1,2,3,4,5,6,7,8,1,2,3,4,5,6,7,8bx,
E
