&title=Danza Aestas
&artist=feryquitous
&first=0
&des=baiqieji
&lv_5=13+
&inote_5=(150)
{4}
,,,,
,,,
{16},,3,3,
5pp8[4:4],,,,,,,,,,,,,,,,
2h[4:4],,,,,,,,,,,,,,,,
4qq4[4:2],,,,,,,,,,,,,,,,
{12}
4,4,4,7,7,7,1<6[8:1]*p4[8:1],,,1,,,
{16}
2,,43,,6,5,,3,4,1h[8:1],,4,4,,2h[8:1],,
7,,56,,3,4,,6,5,8h[8:1],,5,5,,7h[8:1],,
1,,34,,6,5,,2,1,3h[8:1],,4,4h[8:1],,1,,
2,,3b/4,,,6/7b,,,,1b/2,,5b/6,,,,,
2b,,4,3,5,4,,8,5,6,,2,4h[8:1],,1h[8:1],,
7,,5,6,4,5,,2,4,3,,6,5h[8:1],,8h[8:1],,
4,,7,7,3,5,,2,2,4h[8:1],,3,5,,48,,
8h[8:7],,,1,,,2,,,3,,,4,,4,,
36,,2h[8:1],,7,6,5,1h[8:1],,4,,4,3,,6,,
57,,7h[8:1],,2,3,4,8h[8:1],,5,,5,6,,3,,
24,,1h[8:1],,4,5,6,2h[8:1],,8,,4,7,,5,,
{12}6,2,2,4,1s5[4:1],1,,,,,,,
{16}
6b/4,,3h[8:1],,7,6,5,4,8,7,6,5,8h[8:1],,2,,
34,,6h[8:1],,2,3,4,5,1,2,3,4,1h[8:1],,7,,
2,4,3,5,4,6,5,7,2,4,3,5,4,6,5,7,
{12}
,15,34,,48,56,{12}7h[4:1],,,{16}5p4[4:1],4,3,2,
5,,,,8,1,2,3,6,7,8,1,3,8,1,6,
8,4h[8:1],,8b,,8,1,2,4,2,6,4,,,6,7,
3h[16:3],,,4h[16:2],,2,5,3,7bV51[4:1],,,,7b/4b,,,,
2,2,,34,,,6,4,8h[8:1],,5,4,{24}3h[8:1],1,8,7,6,5,
{16}
4b/2,,,6,4,7,5,8,2,1,3,1,2,8,1,7,
8,6h[8:1],,5b,,3,2,1,6,1,4,3h[16:3],,,8,7,
3b,5,5,8b,5,5,2b,,2bv5[8:1]*p6[8:1],,,,2b,,,,
7,4,5,3,4,2,6,4,7,7,1,1,3,3,5,5s1[4:6],
,,,,,,,,,,,,,,,,
,,,,,,,,,,,,,,,,
3,4,3,2,3,4,3,2,3,5,3,2,3,4,3,1,
,,8-4[16:1]/7h[8:1],,,8,,,5-1[16:1]/3h[8:1],,,5,,,2,,
3<6[8:1],,2,,7p3[8:1],,8,,2<7[8:1],,1,,5-2[8:1],,6,,
8<5[8:1],,1,,3v8[8:1],,2,,6>3[8:1],,7,,1-6[8:1],,2,,
3-7[8:1],,3,,4-8[8:1],,4,,5-1[8:1],,5,,6-2[8:1],,6,,
,,8h[8:1],,,1h[8:1]/7h[8:1],,,2h[8:1]/6h[8:1],,,3h[8:1]/5h[8:1],,,4h[8:1],,
5b<8[8:1],,,,1p4[8:1],,,,8q5[8:1],,,,4>1[8:1],,,,
8v3[8:1],,,,4>1[8:1],,,,7h[4:2],,,,8,,,,
5,6,5,7h[8:1],,3,4,1h[8:1],,,3,1,4,2,5,3,
6,4,7,4,6,4,5,5,6,4,5,5,6h[4:1],,,,
1b>4[8:1],,,,5p8[8:1],,,,4q1[8:1],,,,8<5[8:1],,,,
4>1[8:1],,,,8q5[8:1],,,,3h[4:2],,,,5,,,,
4,3,5,4h[8:1],,7,5,6h[8:1],,,2,7,5,6,4,5,
3h[8:1],,,5h[8:1]/6h[8:1],,,25,,4h[8:1]/6h[8:1],,,5h[8:1]/8h[8:1],,,26,,
1s5[4:2]*s5[4:2],,,,,,,,,,,,,,3,3,
5,4,7,5,,4,5,2,4,4,5,5,7,,,,
3h[8:1]/4h[8:1],,,4h[8:1]/7h[8:1],,,1s5[4:1]*s5[4:1]/5,,,,,,,,,,
{12}34,3,3,37,7,7,7/1-5[8:1],,,1,,,
{16}
6,,,,7,,,,8,,,,{64}1b,8,,,,,,,,,,,,,,,
{16}
3b/8b,,2,2,7,1,,6,,1>4[8:1]/7,,2,7,1,6,7,
8,1,25,6,7,8,1,4,3,6,4,5,5,6,4,5,2h[4:1],,
{24}1,8,7,{16}6,3,5h[8:1],,{24}8,7,6,{16}5,7,4,6,3,5,
2-5[16:1],,,2/8-4[16:1],,,1-5[16:1]/8,,,1/7-4[16:1],,,3,,2,,
1b,,7,7,2,8,,3,,8<5[8:1]/2,,7,2,8,3,2,
1,8,74,3,2,1,8,5,6,3,5,4,4,3,5,4,
7v1[8:1],,56,,3,3,,2,3,4,7,4,5,5,6,3,
7h[8:1],,,8h[8:1]/5h[8:1],,,6,6,2h[16:3],,,4h[8:1],{24}8,1,2,3,4,5,
{16}
7b,7h[8:1],,2,,56,,24,,4,3,6,5,8,4,6,
{32}3,4,5,,7h[16:1],,2,3,4,,6h[16:1],,1,2,3,,5h[16:1],,8,1,2,,{16}5,3,6,4,8,
1,1,4,4,3,6,5,7,3,8,2,8,1,7,8,6,
2b-5[16:1],,,2b/1,,,7b-4[16:1],,,7b/8,,,3b,,1b,,
2b,2h[8:1],,7,,43,,75,,5,6,3,4,1,5,3,
{32}6,5,4,,2h[16:1],,7,6,5,,3h[16:1],,8,7,6,,4h[16:1],,1,8,7,,{16}4,6,3,5,1,
6,6,4,4,8,5,6,2,4,3,6,5,7,3,{24}8,7,6,
{16}3b/5,,,4/8b,,,6bV41[4:1]/2bV85[4:1],,,,,,,,,,
6,5,7,3,4,3,6,5,7,3,4,3,5,4,6,5,
7,3,1,2,8,1,7,8,6,2,1,3,8,4,6h[8:1],,
2,4,3,6,4,4,7,5,6,3,5,5,2,2,4,4,
1,5,3,7,5,5,8,4,6,2,4,4,3,3,7h[8:1],,
3,4,3,1,3,5,3,2,3,4,3,8,2,2,7,3,
6,5,6,8,6,4,6,7,6,5,6,1,7,7,2h[8:1],,
7,5,6,1,4,3,7,5,1,3,5,2,6,5,5,4,
7,3,6,8,4,2,6,5,8,3,4,2,6,5,5,4h[16:5],,,,,
1qq6[4:7]*q4[4:7],,,,,,,,,,,,,,,,,,,,,,,,,,,,E
