&title=Here, the world!
&artist=Sumimi
&first=0
&des=D.N.T.
&lv_5=12+
&inote_5=(123)
{1},
{1}1xs5[2:1]/3xh[4:3],2xh[4:3]/4x-2v8-6[2:1],1xh[4:3]/5x-7v1-3[2:1],
{8}5xh[4:1],4,2xh[4:1],3,{16}1xV75[4:1],,3h[8:1],,,3h[8:1],,,
{8}4b,,7xp3[8:1]/5h[8:1],8h[8:3],,,2xq6[8:1],1h[8:3],,,7x-4-1[4:1],8h[4:1],,,{16}6h[2:1],,,A7/D8,,,,,
{8}8V24[4:1],8,4xqq5[2:1]/8xqq1[2:1]b,,,,,,,,8<5[8:1]/4>1[8:1],,8b/4b,,
{16}2V48[4:1],,,,6,,6,,7-4[8:1],,,,78,,2,2,1p4[4:1],,,,12,,2,,8v3[8:1],,,,8/4pp6[8:1],,,,
{8}2x/4x,1h[4:1],,B5/B6/E6/D6,B1/B2/E2/D2,,5qq3[8:1]/3,,
{8}7x/5x,8h[8:3],4pp1[8:3]b,,,,8b,,
{16}7V51[4:1],,,,3,,3,,2-5[8:1],,,,21,,7,7,8q5[4:1],,,,78,,7,,1V75[4:1],,,,1/5,,,,3xh[2:1],,,,2,,1,,8xh[4:1],,,,2-5[8:1]*>5[8:1],,1,,
{16}2-7[8:1]*<7[8:1],,,,2,,,,2-6[8:1]/4,,6-2[8:1],,2b,,,,
{16}8-4[8:1],,,,1,,2,,5h[4:1]/3-7[8:1],,,,,,8b-6-4-2[8:3],,,,,,1,,1,,8-6[8:1]*-4[8:1],,,,8,,,,
{16}1-5[8:1],,,,8,,7,,4h[4:1]/6-2[7:1],,,,,,3b-7-5[4:1],,,,,,4,,,,2-4[8:1],,6-8[8:1],,2,,6,,
{16}5v2[8:1],,4,,3<7[4:1]/5,,,,1,,,1h[16:3],,,8x,,
{16}4v7[8:1],,5,,6>2[4:1]/4,,,,8,,,8h[16:3],,,1x,,
{16}Cf/1b-4V62[2:1]b,,,,,,,,8,,,,7xh[4:1],,8,,
{16}3xh[4:1],,2,,1-5[8:1],,,,1/8qq3[2:1]b,,,,Ch[4:3],,,,,,,,,,,,
{16}2-6[8:1],,2,,B4/E5f,,,,
{16}7<5[8:1]/8p4[8:1],,,,7x/8x,,,,3<5[8:1]/2q6[8:1],,,,2x/3xV17[4:1],,,,3/7q5[4:1],,,,5xpp4[4:1]b,,,,8x,,,,B6/E7,,,,
{16}2q6[8:1],,,,27,,8,,1-5[8:1],,5-7-4-8[8:3],,1,,2bh[8:3],,,,,,,,,,3-8[8:1]/7-4[8:1],,26,,37,,,,
{16}2>4[8:1]/1q5[8:1],,,,2x/1x,,,,6>4[8:1]/7p3[8:1],,,,7x/6xV82[4:1],,,,6/2p4[4:1],,,,4xqq5[4:1]b,,,,1x,,,,B3/E3,,,,
{16}7p3[8:1],,,,72,,1,,8-4[8:1],,4qq1[8:3],,8,,7bh[8:3],,,,,,,,,,5x-8[8:1]b/1xv4[8:1]b,,,,5x/1x,,,,
{16}8h[16:3],,5,5,,7,7v6-4[4:1],,1h[4:1],,,,,,1,,8h[16:3],,4,4,,2,2v3-5[4:1],,8h[4:1],,,,,,7,,
{16}7h[4:1],,8,,1V35[4:1],,6,,5-2[8:1],,,,8h[16:3],,,,7-3-5[4:1]/1h[4:1],,,,7,,,,{32}D1f,A1,D2,A2,D3,,,,E7f,B6,B5,B4,E4,,,,
{16}1h[16:3],,4,4,,2,2v3-5[4:1],,8h[4:1],,,,,,8,,1h[16:3],,5,5,,7,7v6-4[4:1],,1h[4:1],,,,,,2,,
{16}2h[4:1],,1,,8V64[4:1],,3,,4-7[8:1],,,,8,,1,,2pp4[4:1],,,,4q1[4:1],,,,1>5[4:1],,,,5pp4>7[4:3]b,,,,
{16}6h[8:3],,,,,,,,B5/A5f/E6/E5,,,,,,6h[8:3],,,,7,,7-2[8:1]*-4[8:1],,,,7x,,,,1bh[4:1],,,,
{16}3-5[8:1],,,,2/3-8[8:1],,,,3/7h[8:1],,,B5/B6,,,1,,2-5[8:1],,2,,8-4[8:1],,8,,3h[8:1],,,B2/E3,,,,,
{16}7,8,7,8,6h[4:1],,5,,4-2[8:1]b*-8[8:1]b,,,,,,,,2,1,2,1,3h[4:1],,4,,5-7[8:1]b*-1[8:1]b,,2,,,,,,
{16}8h[4:1],,6,,5h[4:1],,7,,6h[4:1],,8,,2h[4:1],,4,,7h[4:1],,5,,3h[4:1],,2,,4h[4:1],,1,,2h[4:1],,8,,
{16}7bV53[4:1],,,,78,,1,,2-5[8:1],,2pp6[8:5]b,,2,,,,,,,,,,,,,,7xV51[4:1]/8x-4-2[4:1],,1x/2x,,,,
{16}Cf,,,,,,,,8xh[8:3],,,6,,,6,,7V13[4:1]/5,,4,,3V57[4:1],,3,,,,B1/B2,,B1/B2,,,,
{16}7-5[8:1]/8-5[8:1],,1,,,,,,1xh[8:3],,,3,,,3,,2V86[4:1]/4,,5,,6V42[4:1],,6,,,,B8/B7,,B8/B7,,,,
{16}6-1[8:1]/1-5[8:1],,7,,,,,,4xh[8:3],,,2,,,8,,5/7h[8:3],,,1,,,3,,2/4h[4:1],,B1/E1,,B1/E1,,,,
{16}3-8[8:1]/8-4[8:1],,2,,,,,,5xh[4:1],,7,,3h[4:1],,1,,7x,,7x,,1x,,1x,,6,2,5,3,6,2,5,3,
{16}6bh[2:3],,,,,,,,,,,,3>5[1:1],,,3,,,,,,,,,,,,,4-2-8-6[1:1],,,4,,,,,,,,,,,,,5qq4[2:1],,,5,,,,,,,,,,,8h[16:3],,,2,,,
{16}3-1[8:1]*-5[8:1],,,,3-7[8:1],,,,3/6h[4:1],,,,8xpp4[2:1],,,8bx,,,,,7,,,,7h[4:1],,,,B5/B6,,,,
{16}2/4V68[4:1],,,,4V28[4:1],,,,4pp1>3q7[1:1]b,,,,4,,2x,,2xh[2:1],,,,,,,,,,,,1b<7[8:1],,,,
{16}1>3[8:1]/6-4[8:1],,,,1<7[8:1]/6,,,,1>3[8:1]/6-4[8:1],,,,1V75[4:1]/6,,,,1/5p8[4:1],,,,8s4[4:1]b,,,,7,,,,B6/B7/E7,,,,
{16}8V63[4:1],,,,3,,2,,1-4[8:1],,4-2-5-1[8:3],,1,,7bh[8:3],,,,,,,,,,8-4[8:1]/6,,,,8x>2[8:1]/7x,,,,
{16}8<6[8:1]/3-5[8:1],,,,8>2[8:1]/3,,,,8<6[8:1]/3-5[8:1],,,,8V24[4:1]/3,,,,8/4q1[4:1],,,,1z5[4:1]b,,,,2,,,,B2/B3/E3,,,,
{16}1V36[4:1],,,,6,,7,,8-5[8:1],,5qq7[8:3],,8,,2bh[8:3],,,,,,,,,,4v1[8:1]b/8-5[8:1]b,,,,4b/8b,,,,
{16}2h[16:3],,6,6,,4,4V26[4:1],,8h[4:1],,,,,,1,,1h[16:3],,5,5,,7,7V53[4:1],,2h[4:1],,,,,,2,,
{16}1-5[8:1],,8-6[8:1],,1,,8,,3q7[8:1],,,,6h[16:3],,,,8pp1[4:1],,,,78,,,,{32}D7f,A6,D6,A5,D5,,,,E8f,B8,B1,B2,E3,,,,
{16}7h[16:3],,3,3,,5,5V73[4:1],,1h[4:1],,,,,,8,,8h[16:3],,4,4,,2,2V46[4:1],,7h[4:1],,,,,,7,,
{16}8-4[8:1],,1-3[8:1],,8,,1,,6-4[8:1],,,,2,,2,,7qq5[4:1],,,,5p8[4:1],,,,8<4[4:1],,,,4qq5<2[4:3]b,,,,
{16}3h[8:3],,,,,,,,B4/A4f/E4/E5,,,,,,3h[8:3],,,,2,,2-7[8:1]*-5[8:1],,,,2x,,,,8bh[4:1],,,,Cf,,,,
{16}2v8[8:1],,3h[8:3],,,,,,7v4[8:1],,6h[8:3],,,,,,3-6-1[4:1],,2h[4:1],,,,,,4h[2:1],,,,2,,,,
{16}8-5[8:1],,7h[8:3],,,,,,4,,3,,6h[4:1],,B1/B2,,1h[4:1],,B5/E5,,7w3[8:1],,,,7,,,,1,,,,
{16}7v1[8:1],,6h[8:3],,,,,,2v5[8:1],,3h[8:3],,,,,,6-3-8[4:1],,7h[4:1],,,,,,5h[2:1],,,,7,,,,
{16}1-4[8:1],,2h[8:3],,,,,,5,,6,,3h[4:1],,B8/B7,,8h[4:1],,B4/E5,,2-5[8:1]*p7[4:1]b,,,,2,,,,4bx,,,,
