&title=ネジ巻き師と太虚鳥
&artist=sasakure.UK
&first=0
&des=Tail_R
&lv_5=13
&inote_5=(150)
{1},
{8}3h[8:15]/4h[4:1],,,4h[4:1],,,4h[8:1],,
{8}4h[4:1],,,4h[4:1],,,4h[8:1],,
{8}2h[8:15]/1h[4:1],,,1h[4:1],,,1h[8:1],,
{8}1h[4:1],,,1h[4:1],,,1h[8:1],,
{16}3h[16:3],,,4,3,,2-4[32:3]/5,,,,B5,,C,,,,
{16}6h[16:3],,,5,6,,7-5[32:3]/4,,,,B4,,C,,,,
{16}3h[16:3],,,4,2,,1-5[8:1]/5,,,,A6,,E8,,,,
{16}6h[16:3],,,5,7,,8-4[8:1]/4,,,,A3,,B2,,,,
{1}1b-5[4:7]/5,
{2}8,7,
{1}6-2V85[2:3],
{1},
{1}4-8[4:7]/8,
{2}7,6,
{1}5p4>5[2:3],
{1},
{1}5x-1[4:7]/1,
{2}2,3,
{1}4pp8[2:3]*qq8[2:3],
{1},
{1}8-4[2:3]/4,
{2}3,2,
{1}6V42V86[2:3]/1V75V31[2:3],
{1},
{16}7-5[32:3]/1,,,8,,,8,,4-6[32:3],,,3,,,3,,
{16}7-5[32:3],,,1,,,1,,4-6[32:3],,,2,,,2,,
{16}7-1[32:3],,,4,,,4,,2-8[32:3],,,3,,,3,,
{16}7^2^7b[8:3],,,3,,,3,,4h[8:3],,,,,,,,
{16}2-4[32:3]/8,,,1,,,1,,5-3[32:3],,,6,,,6,,
{16}2-4[32:3],,,8,,,8,,5-3[32:3],,,7,,,7,,
{16}2-8[32:3],,,5,,,5,,7-1[32:3],,,6,,,6,,
{16}2-5V38-4[2:1],,,7,,,7,,6h[8:3],,,,,,,,
{16}7x-5[32:3]/1x,,8,8,7,,1,,4-6[32:3],,3,,2,,2,,
{16}7-5[32:3],,8,,1,,1,,4-6[32:3],3,3,,2,,2,,
{16}7-1[32:3],,2,,3,4,5,,2-8[32:3],,5,,4,,4,,
{16}7-3[8:1],,1,1,7,,2,,4-1b[8:1],,4-7[8:1],,,,,,
{16}2x-4[32:3],,1,1,2,,8,,5-3[32:3],,6,,7,,7,,
{16}2-4[32:3],,1,,8,,8,,5-3[32:3],6,6,,7,,7,,
{16}2-8[32:3],,7,,6,5,4,,7-1[32:3],,4,,5,,5,,
{8}5bV38[4:1]/6b,,8V26[4:1],7,7h[8:3],,,5,
{8}5b>1[16:5],,,7q5[4:1],,,,8>4[4:1],
{8},,,5-1[8:1],,,4h[4:1],,
{8}8qq4[8:3],,,3qq8[8:3],,,,5<3[16:5],
{8},2,,4-8[8:1],,,5h[4:1],,
{16}1-5[8:1],,,7,1,,6-1[8:1],,5,,4,,3xh[4:1],,,,
{16}7-3[8:1],,,1,7,,2v5[8:1],,5,,6,,7xh[4:1],,,,
{16}4-8[8:1],,,6,4,,7-4[8:1],,8,,1,,2hx[4:1],,,,
{16}6-2[8:1],,,4,6,,3,,1x-5[8:1]/2x-4[8:1],,,,1-7[8:1]/2-6[8:1],,,,
{16}1b/2b,,,,3/4,,2,1,2-5[8:1],8,3,,2/5,,6,,
{16}7,4,6,5,7h[8:1],,3,4,3,2,3h[8:1],,6-1[8:1],5,7,,
{16}6/1,,2,,3,,4,5,4-8[8:1],6,5,,4/8,,7bx^4[8:1],,
{16},,1-5[8:1]/7-3[8:1],,,,1b/7b,,,,4,,3/5,,2/1,,
{16}8b/7b,,4,,6/5,,7,8,7v4[8:1],1,6,,7/4,,3,,
{16}2,4,3,5,2h[8:1],,6,5,6,7,6h[8:1],,3v8[8:1],4,2,,
{16}3/8,,7,,6,,5,4,5q1[8:1],3,4,,5/1,,2hb[8:1],,
{16}7,8,6,5,7h[8:1],,2,4,2,8,2h[8:1],,8<1[1:1],1,2/7,,
{1}Cf,
{8}3hx[8:3],,,8h[8:1],7h[8:1],6h[8:1],5h[8:1],4h[8:1],
{16}2,,3^1[32:3],,1,,8,7,6h[8:1],,5,5h[8:1],,4,4h[8:1],,
{16}2-5[8:1],,6,6,,7,7,,8^5[8:1]/4,,3,,{16}8,1,2,3,
{8}4x/6xhb[4:1],,1h[8:1],2h[8:1],3h[8:1],4h[8:1],5h[8:1],6h[8:1],
{8}7^2[8:1],,2,4h[8:1],5h[8:1],2h[8:1],1h[8:1],3h[8:1],
{16}8-4[8:1],,1/7,,8,,2^5[8:1],,1/8,,6,7,8h[4:1],,6,,
{16}2,1,3,8,2h[8:1],,6,5,7,5,6h[8:1],,1,,1,,
{32}2x/8h[8:1],E3,B3,B4,E5,,,,7,,,,2x/7h[8:1],E3,B3,B4,E5,,,,6,,,,2x/6h[8:1],E3,B3,B4,E5,,,,
{32}2x/5h[8:1],E2,B1,B8,E8,,,,6,,,,2x/6h[8:1],E2,B1,B8,E8,,,,7x/2x,,,,1b/8b,,,,,,,,
{32}7x/1h[8:1],E7,B6,B5,E5,,,,2,,,,7x/2h[8:1],E7,B6,B5,E5,,,,3,,,,7x/3h[8:1],E7,B6,B5,E5,,,,
{32}7x/4h[8:1],E8,B8,B1,E2,,,,3,,,,7x/3h[8:1],E8,B8,B1,E2,,,,2x/7x,,,,8b/1b,,,,,,,,
{32}3x/5h[8:1],E3,B2,B1,E1,,,,6,,,,3x/6h[8:1],E3,B2,B1,E1,,,,7,,,,3x/7h[8:1],E3,B2,B1,E1,,,,
{32}3x/8h[8:1],E4,B4,B5,E6,,,,7,,,,3x/7h[8:1],E4,B4,B5,E6,,,,6x/3x,,,,4b/5b,,,,,,,,
{32}6x/4h[8:1],E7,B7,B8,E1,,,,3,,,,6x/3h[8:1],E7,B7,B8,E1,,,,2,,,,6x/2h[8:1],E7,B7,B8,E1,,,,
{32}6x/1h[8:1],E6,B5,B4,E4,,,,2,,,,6x/2h[8:1],E6,B5,B4,E4,,,,3x/6x,,,,5b/4b,,,,1,,8,,
{16}2,4,3,4,3h[8:1],,6,5,6,7,6h[8:1],,3,3,4,,
{16}7,5,6,5,6h[8:1],,3,4,3,2,3-6b[12:1],,4,4,3x,,
