&title=Re-sublimity
&artist=KOTOKO
&first=0.137
&des=Kondou
&lv_6=13+
&inote_6=(135.02)
{8}
2h[8:2]/4h[8:3],,,,5h[8:2]/3h[8:3],,,,
4h[8:2]/6h[8:3],,,,7h[8:2]/5h[8:3],,,,
8h[8:2]/1h[8:2],,,,7/2pp6[8:8],,8,8,
,1,1-7[8:2],,,,,,
5h[8:2]/4h[8:2],,,,6/3-8[8:2],,7,7,
5,6,{16}71,,6,5,8,,2,1,3-7[8:1],1,2,,
3b/7b,,,,5-8[8:1]/1,,,,5-2[8:1]/4,,,,6/5,,7,,
8p4[8:1],,1,,2q6[8:1],,1,,82,,7,8,7,8,6,,
2^5[8:1]/5,,,,1-6[8:1]/2,,,,1/7-4[8:1],,,,7/3,,2,,
1^4[8:1],,7^4[8:1],,1,,7,,1,1,6,6,5,7,5,,
1b/2b,,3h[8:1],,4,4h[8:1],,5,5h[8:1],,6,6,4,5,4,,
73,,6h[8:1],,5,5h[8:1],,4,4h[8:1],,3,3,5,4,7h[16:3],8h[8:1],
,,2h[16:3],1h[8:1],,,7h[16:3],5h[8:1],,,2h[16:3],4h[8:1],,,6,5,
7b,,{32}1,2,3,4h[32:3],,,8,7,6,5h[32:3],,,{16}3,3,3,,7,7,7,,
8b/1b,,,2,4,3,,3,12,,7,,81,,6,,
7,5,,5,6,8,,8,71,,3,,82,,4,,
6^1[8:1],6,5,,2-5[8:1],2,,,2/5-1[8:1],,,,8,,8,,
7-4[8:1]/2,,6,,7/1-5[8:1],,2,,18,,8,,62,,2,4,
3b/4,,1,1,,82,,7,78,,6,,12,,3,,
6,8,,8,4,2,,2,13,,7,,68,,45,,
1h[8:1]/3,,5,,8h[8:1]/2,,4,,7h[8:1]/1,,5,,8b/6b,,7b/4b,,
5b/1b,,52,,53,,54,,6,5,8,8,2,4,3,3,
1b-4[8:1],,,,1/7qq3[8:3],,,,2,,1,,8>4[8:2],,,,
5,,6,,7,7,,8,85,,63,,14,,63,,
8b-5[8:1]/5b,,,,8/2pp6[8:3],,,,7,,8,,1<5[8:2],,,,
4,,3,,2^4[8:1],,1,,8-3[8:1]/2,,8,,78,,7,,
6b<4[16:4]/1b,,5,,4,4q8[16:2],,5,,,,,2,2,1,,
3>5[16:4]/8,,4,,5,5p1[16:2],,4,,,6,,7,,8,,
7b-3[8:1]/2b-8[8:1],,,,7^4[8:1]/2,,,,7b-2[8:1]/3b-6[8:1],,,,73,,,,
15,,84,,73,,62,,15,8,7,6,15,84,73,62,
1b/5b],,4V25[16:3]/3,,1/2,,6,6,,8,8V61[16:3],,65,,2,2,
,4,4V25[16:3],,12,,6,6,,8,8^6[16:2],,5/6pp4[8:2],,2,2,
,1,1<1[8:3],,,,,,,,7,,6,,5,5,
4bp7[8:1],,3,,2>6[8:1],,1,,8p2[8:1],,7,,6,,5,5,
1bs5[8:1],,,,8,,7,,6/2pp1[8:2],,3,,1/2,,8,8,
,7,8,,61,,2,1,3>6[8:2],,,6,6,,5,,
4-1[8:1],,3,,4/2b-6[8:1],,,,8-5[8:1],,,,7b/8b,,,,
72,,3,,45,,6,,7,7,5,5,4,4,2,2,
1b^4[8:1],,78,,61,,5,5,8^5[8:1],,12,,83,,4,4,
1-6[8:1],,78,,61,,5,5,8-3[8:1],,12,,83,,4,4,
{32}1,8,7,6,5pp3[8:2],4,3,2,1,8,7,6,{16}5b,,,,1,,2-6[8:1]/8,,37,,
6b<5[8:2]/2,,,,5b-1[8:1],,,,8b,,{32}8,7,6,5,{16}2b,,13,,
8b/4b-1[8:1],,,,4-7[8:1],,6,,4/2^5[8:1],,1,1,8-4[8:1],,7,,
3-8[8:1],,2,,7v4[8:1]/3,,6,6,1>5[8:1],,2,,81,,7,,
6pp4[8:2],,5,,6/4b>5[8:2],,,,,,,,1b,,1,,
3,4,2,8,4,5,1,7,6,6,8,8,1,1,3,3,
2b<5[8:4]*q5[8:4],,,,,,,,,,,,,,,,
24,,3,,75,,6,,54,4,1,2,82,8,5,7,
6b/1b<1[16:28]*<7[16:7]*<5[16:14]*<3[16:21],,,,,,,,,,,,,,,,
,,,,,,,,,,,,,,,,
