&title=World's Smallest Violin
&artist=AJR
&first=0.15
&des=捱思北塔
&des_5=捱思北塔
&clock_count=4
&lv_5=11
&inote_5=(116){4},{8},,,,,,,,,,,Ch[24:49],
,B3h[6:11],
{4}B6h[4:7],B4h[24:37],{8},B5h[24:29],{4},,,,,{8}2/8,
4,,4,,4,,4,
3/7,5,,5,,5,,5,
6/2,1,,1,,1,,1,
6h[8:1],8,5h[8:1],8,4h[8:1],8,3h[8:1],8,
5/2,3,,3,,3,,3,
7/4,6,,6,,6,,6,
1/7,2,,2,,2,,2,
7h[8:1],5,8h[8:1],5,1h[8:1],5,2h[8:1],5,
5/6,5/6,{4}8h[2:1]/4pp6>1[16:5],{2},{8}8/7,
8/7,{4}1h[2:1]/6V85-3[16:5],{2},{16}2h[8:1],
{8},{16}4h[8:1]/3h[8:1],{8},5/6h[8:3],1,7,5-7[8:1],3,
{4}5-2[8:1]*-3[8:1],5w1[8:1],,7h[4:1],
{8}2,3,6,5,3/4,2,6-3[8:1]/5-3[8:1],7,
{4}6-8[8:1]/5-8[8:1],5/6-2[8:1],1,3h[16:3],
{8}1,8,7/3,4,6/5,5/4,4/3,2,
{4}8/1x-5[8:1],2x-6[8:1],3x-7[8:1],4xh[4:1],
{8}8,8,{4}7/1V72-5[16:5],{2}6h[4:1],
{8}4,4,{4}2/5V74-8[16:5],{2}3h[4:1],
{8}1,2,4/3,5,2/6,3,4/5,6,
{4}7/3>8[8:1],7<4[8:1],1-5[8:1],{8}6,7,
4/8-4[8:1],8/4,{4}8/4pp5[4:1]*qq4[4:1],{2},{8}7<4[8:1]/3>8[8:1],
7/3,{4}7V14[4:1]/3V58[4:1],{2},{8}2/1,
3,8/7,6,1/2,8/3,{4}7h[1:1]/4v1[8:1],
4x,1xv4[8:1],1x,8x,
{8}1,1,{4}1pp3[16:3]/2>4[16:3],{2},{8}6,
6,{4}6v8[16:3]/5-8[16:3],{2},{8}1,
1,2,2,3,3,4,4v1[8:5],
{1}1>4[2:1],
{8}8h[8:1],5h[8:1],7h[8:1],6h[8:1],8h[8:1],5h[8:1],7h[8:1],6h[8:1],
{4}8>5[4:1],{2},{8}8,1,
{2}2/6>8[4:1],{4}4h[8:1],7h[8:1],
{1}6V82>5[2:1]/5V31<6[2:1],
{8}4/2,3,,3,,3,,3,
6/4,5,,5,,5,,5,
4/2,1,,1,,1,,1,
6h[8:1],8,5h[8:1],8,4h[8:1],8,3h[8:1],1,
{1}8V27-5[2:1]/2V83-5[2:1],
6<1-7[2:1]/2>5-3[2:1],
{4}2h[8:1],4h[8:1],5h[8:1],7V15[4:3],
{1}1,
{4},(95)4/3-6[4:1],2,1,
8,(100)5/6-3[4:1],7,8,
1,(115)1/2-7[4:1],3,(120)4,
5,(130)8/7-2[4:1],6,(145)5,
{16}4,,{8},{4}3/4-1[4:1],5,{8}6,,
{4}7,7/8-5[4:1],1,2,
3,6/5-8[4:1],4,3,
2,(150)2/1-4[4:1],8,7,
6,(160)5x/4x-1[8:1],7x-2[8:1],3x-6[8:1],
8x-5[8:1],2x-7[8:1],6x-3[8:1],1x-4[8:1],
4x,5x/7x-4[8:1],2x-5[8:1],6x-1[8:1],
8x-3[8:1],4x-7[8:1],1x-6[8:1],5x-2[8:1],
2x,8h[8:1]/3h[8:1],6h[8:1]/5h[8:1],7h[8:1]/8h[8:1],
4h[8:1]/3h[8:1],{8}5/2,2,7/3,7,6/1,1,
{4}2/8w4[8:1],8b/Cf,
E
