&title=神話
&artist=M2U & Pica
&first=0
&des=Jack2310
&lv_5=13.4
&des_5=Jack2310
&inote_5=
(130){4},{8},,3,{16}5,4,{8}5,6,
{16}3,7,4,5,3,6,4,5,{8}3,{16}2,1,{8}2,8,
7,1,{16}8,1,8,1,{8}7,{16}6,5,{8}6,4,
3,{16}4,3,5,2,4,3,{8}5,{16}6,2,{8}7,1,
{16}2,7,3,6,{8}4,5,6>3[8:1],2,1,2,
2<7[8:1],4,5,6,7<4[8:1],3,2,1,
3,2,{16}4,3,4,3,{8}5/2,{16}4,5,{8}3,4,
7/5,{16}4,5,3,4,3,5,{8}6/4,{16}6,1,{8}7>4[4:1],8,
6,5,{4}6,{8}2/5-8[8:1],,,4,
5/3-6[8:1],,,8,4/7-2[8:1],5,4,3,
{4}6/1-4[8:1],{16}5,6x,7x,8x,{4}4h[8:1],{8}5,4,
8/2-7[8:1],3,2/6-1[8:1],5,6/2-5[8:1],3,2/6-3[8:1],7,
{4}6/1h[8:1],{16}2,3x,4x,5x,{8}6-3[8:1],,,1,
2-7[8:1],,,6,2/5<8[8:1],1,5/1>4[8:1],2,
{4}1/7,{16}6,5,6,5,{4}7/4h[8:1],{8}7,4,
3/6-1[8:1],7,6/2-5[8:1],3,2/7-4[8:1],8,7/3-8[8:1],2,
{4}3/6h[8:1],{16}2,8,3,7,4b/6b,,,4,,,3,4,
{8}2-5[8:1],6,2/7,6,{16}8/1h[8:1],,,8,,,7,8,
{8}7-4[8:1],1,7/2,3,{16}6b/5h[8:1],,,6,,,5,4,
{8}5,6h[8:1],2-7[8:1],3,2/5b-8[8:1],6,5/1b-4[8:1],2,
1/6b-3[8:1],7,6/3,2,{16}1b/8h[8:1],,,1,,,2,1,
{8}2>5[8:1],8h[8:1],2,7,{16}6/3h[8:1],,,6,,,7,8,
{8}7<4[8:1],1h[8:1],7,2,{16}4b/5h[8:1],,,4,,,5,4,
{8}5,6h[8:1],3h[8:1],5,7/2,1,{16}8,2,7,3,
6<1[8:1],4,5,4,{8}6/3,2,{4}8b/1b,7/1h[8:1],
{8}6/1V35[4:1],7h[16:1],1/6,8,7V13[4:1],3,7/4-8[8:1],5,
{4}4,{8}5/3>8[8:1],2,{4}3/5h[8:1],{8}4/6<1[8:1],7,
6/4,3h[16:1],7/2-5[8:1],3,2/6b-1[8:1],7,6/3b>8[8:1],2,
{4}3/7b,{8}1h[8:1]/7<4[8:1],8,{4}7/2b-5[8:1],2/8bh[8:1],
{8}2/8V63[4:1],{16}1,1,{8}8/2,1,1V35[4:1],2,1/6-1[8:1],7,
{4}6,{8}2/7<4[8:1],6,{4}7/3,{8}6/3>8[8:1],2,
3/6-2[8:1],5h[16:1],1/6,8,8b/7b,1/8,3/2pp5[8:3],6/5,
{4}7b/2,Cf,{2}6p3[2:1],
{8}C,,,1,{4}2z6[8:3],B5,
{8},,4,5,{4}6h[4:1],3-8[8:1],
7-4[8:1],3p6[8:1],7p2[8:1],3-8[8:1],
{16},,,,5,4,5,4,{2}3q6[2:1],
{8}C,,,8,{4}7z3[8:3],B2,
1,{16}2,7,3,6,{4}4h[8:1],5-2[8:1],
1-6[8:1],8p3[8:1],4p7[8:1],8-5[8:1],
{2}2-6[8:1],{16}7/5,4x,{8}3x,3,{16}4,2,
{8}5,{16}4,5,3,6,{8}2,{16}6/4,5,{8}4,3,{16}5,4,
{8}6,{16}3/5x,2x,1x,8x,7x,6x,5x/4x,3,{8}4,3/5,{16}3,4,
{8}2,{16}3,7,4,6,3,7,{8}8b/1-4[8:1],2,1/5b-8[8:1],6,
{16}5/4b,3x,2x,1bx,{8}7,2b,{16}1/8,7,{8}6,5/4,{16}3,2,
{8}1,{16}8,2,7,3,{8}6h[8:1],{16}4,5,{8}4,7/3,{16}4,5,
{8}4,{16}3,6,2,7,{8}1,{16}6<1[8:1],5,{8}6,2h[16:1],4h[16:1],
{16}3>8[8:1],4,3,5,{8}3,{16}7,1,{8}6,{16}5,3,4x,5x,6x,7x,
1x,2x,3x,4x,{8}5x/6,4,{4}4/6<4[4:5],5h[8:1],
4h[8:1],{8}5,6,{4}6h[8:1],5h[8:1],
6h[8:1],{8}2,8h[8:1],{4}1,{8}7,2h[8:1],
5,{16}3,4,{8}3/5-1[8:1],6,5/3b-7[8:1],2,3/6b<1[8:1],5,
{4}2b/6,{8}2/8h[8:1],1,{4}3h[8:1]/5h[8:1],8h[8:1]/2h[8:1],
{8}7/1,{16}8,1,{8}8,1/7,8/2h[8:1],5,4h[8:1],2,
5/3h[8:1],6,7/5,6,1/7h[8:1],3,8/2h[8:1],6,
2/5h[8:1],{16}3,4,{8}3-6[8:1],7-4[8:1],3x-8[8:1],7x-2[8:1],3x<6[8:1],7x,
{4}3x,{8}3h[8:1]/8-4[8:1],7,{4}8/2<7[8:1],2/6-2[8:1],
{8}6/3-8[8:1],{16}3,4,{8}3/5-2[8:1],6,5/3>8[8:1],4,3/7-2[8:1],6,
{4}7/4h[8:1],{8}3/4<7[8:1],5,{4}4/2h[8:1],{8}5/1>4[8:1],2,
1/6<1[8:1],{16}7,5,{8}6,4,7/3b-8[8:1],2/6,7b-4[8:1]/3-6[8:1],6,
{4}7b/3b,{8}1/7<4[8:1],8,{4}7/2-6[8:1],2/7-4[8:1],
{8}7/3-8[8:1],{16}2,5,{8}3/6-2[8:1],5,6/1-4[8:1],8,1/5-8[8:1],6,
{4}5/3,{8}3/6-3[8:1],5/1,{4}6/2,{8}3/2-7[8:1],4/1,
2/5,6,2/8-6[8:1],1-5[8:1],8-4[8:1],1-3[8:1],8w4[4:1],1,
{4}8b,A5/A4f/A3,{8}6h[8:3],,,2,
3h[8:3]/B6,,,7,6h[16:1],5h[16:1],4h[16:1],3h[16:1],
{4}2h[8:1]/B6,{16}E3,B3,B4,E5,{8}6h[4:1]/A5,,,3q6[4:3],
{1}6q1[4:3],
{4}Cf,{16}E7,B6,B5,E5,{8}3h[8:3]/A4,,,7,
8h[8:3]/B3,,,3,2h[16:1],1h[16:1],8h[16:1],7h[16:1],
{4}6h[8:1]/E4,{16}E7,B7,B8,E1,{8}4h[4:1]/A1,,,2q5[4:3],
{1}7q2[4:3],
{4}Cf,{16}E3,B3,B4,E5,
E
