&title=Nerverakes
&artist=Taishi
&first=0
&des=flawi
&lv_6=14
&inote_6=(140){4},,,,{2}4h[2:1],
{8}6h[8:3],{16},,,,3,2,
{2}1-5[4:1],8,
5h[2:1],3h[4:1],
{16}5/4,,,5,{8}4,5,{16}6,4,{8}5,3/5-8[8:1],6,
{16}5/3b,,,4,{8}7,6/4,{16}3>1[8:1],3,{8}5,3,{16}5,6,
7h[4:1],,,5,,,6,3,7v5[8:1],4,{8}7,{4}7/2,
{8}4/2-8[8:1],{16}3,5,{8}2,7,{16}6-1[8:1],2,{8}5,3/6,{16}2,3,
{8}4v1[8:1],{16}7,7,{8}4,{16}8,2,7,3,6,4,{4}5b,
{16}6,4,5,3,{8}4,{16}7,5,6,4,5,3,4,2,5,3,
{8}5-7[8:1],3,5/4,4,{16}8,7,6,5,2,3,4,5,
7,7,4,4,6,6,3,3,6,5,4,3,6,5,4,3,
6,4,5,3,6,3,5,4,6,3,5,3,{4}7-3[8:1],
{16}7b,,,2,2,6h[16:1],,,{8}5<8[8:1],4,{4}2,
{16}6,4/7,,3,{8}5/2,6/4,{16}7V51[16:3],4,{8}4,{4}2/7,
{8}8/3,{16}1,1/7,,5,{8}4h[8:1],5-1[8:1],3,{4}2/5,
{16}3/6<8[8:1],3,{8}5,6/4,{16}3,5,4,6h[16:1],,3,5,4,6,3h[16:1],
5<8[8:1],,,4,{8}5/4,3V15[4:1],,6,7h[16:1],8,
6/4,{16}5,4,6,4,5,3,6,3,5,2,5,3,6,4,
6,3,5,4,5,3,6,4,5,4,7,4,5,2,5,3,
5h[32:1],3,6,4,5h[32:1],3,6,3,5,4,6h[32:1],4,5,3,5h[32:1],4,
3/6<8[16:1],,,4,{8}6/3,1,{16}1,2/8,,6/4,{8}5,4/3,
{16}7/5-2[8:1],7,,6,{8}5,6,{16}3,5,{8}3,{16}6,4,{8}6,
{16}7-4[8:1],8,,8,{8}7,2,{16}1/5,1,,6/3,{8}6,5/2,
{16}6,3,{8}5h[16:1],2h[16:1],{16}6,4h[16:1],,7h[16:1],,3h[16:1],,5h[16:1],,,6/4-2[8:1],
,,7,{8}7/4,6,{16}5,5,,8,{8}8,6/3,
{16}1/8-6[8:1],,,3,{8}8/3,2,{16}1,1,,4,{8}4,2/7,
{16}4,5,4,5,3,6,3,6,2,7,2,7,1,8,1,8,
{32}1,2,3,4,5,6,7,8,1,2,3,4,5,6,7,8,1,8,7,6,5,4,3,2,1,8,7,6,5,4,3,2,
{2}1h[4:3]/5h[8:3],{4}5-1[8:1],5b,
{8}6/4,{16}3,3/5,,4,2,5/1h[16:3],{32},,,,7,8,1,2,3,4,5,6,{8}2h[8:1],
{32},,,,8,7,6,5,4,3,2,1,8,7,6,5,8,7,6,5,4,3,2,1,{4}5h[4:1]/8>4[8:1],
{8}8,{32}5,6,7,8,1,2,3,4,1,2,3,4,8,7,6,5,4,3,2,1,8,7,6,5,4,3,2,1,
8,7,6,5,1,2,3,4,5,6,7,8,5,6,7,8,{8}1h[8:1],3,{16}1/2,4,6,3,
7,4,3,2,5,4,3,6h[8:1],{32},,,,1,2,3,4,5,6,7,8,{8}1h[8:1],
{32}8,7,6,5,1,2,3,4,7,6,5,4,2,3,4,5,1,8,7,6,{8}5h[8:1],{32}1,2,3,4,5,6,7,8,
1,2,3,4,{8}5h[8:1],{16},,8,3,7,2,6,1,{4}7h[8:1],
{8}8b/3,8/2,8/1,{32}8/1,7/2,3/6,5/4,,,,,{8}5pp8[8:3]/4qq1[8:3],{16}6,3,{8}5/4,
{16},,,,,,7,6,5,1,2,3,7/4,7,,6h[16:3]/3-8[8:1],
,,,3,{8}7,{32}1,2,3,4,{16}5/7h[8:1],,,4,6,5,{8}4/7,
{32}8,7,6,4,3,2,{16}1>4[8:1],{4}6h[8:1],{8},1h[4:1],{32},,,,,8,7,6,
{8}5/2,6/3,7/4,{32}8/5,7,6,5,4,3,2,1,4,3,2,1,8,7,6,5,8,7,6,5,
{8}4/2,5b/3b,4b/6b,{16}7,2,{32}8,7,6,5h[32:9],,1,2,3,{4}4h[16:3],
{16}6,4,5,3,{8}2/6,{16}4,6,5,7,{8}4/8,{16}5,4,5,4,
6b/3b,4,7,6,2,3,6,5,2,2,6,6,3,3,7,7,
{32}1,2,3,4,5,6,7,8,1,2,3,4,5,6,7,8,1,8,7,6,5,4,3,2,1,8,7,6,5,4,3,2,
{1}8b/1h[1:1],
E
