&title=DREAM SOLISTER
&artist=TRUE
&first=0.558
&des=Kurage
&lv_5=13
&inote_5=(167)
{8}4qq5[8:3]/5,,,5,6,7-3[8:1],,7b/8h[8:2],,4,24,3,45,6,{16}7,5,6,,
{8}5pp4[8:3]/4,,,4,3,2-6[8:1],,2b/1h[8:2],,5,75,6,54,3,{16}2,4,2,4,
{8}1bs5[32:7],,5,,6b<3[16:3],,3,,4b<7[8:1],,2/4b>1[8:1],,4bw8[8:1]/6,,4b,,
26,,34,34,6,5-1[8:1]/7,,3<6[8:1],,8>3[8:1],,7p5[32:9],,4h[8:2],,,
3b/6b,,7-4[8:1],7,1-5[8:1],1,6,6bs2[8:2],,2b,3b,4b-8[4:1],,,,,
7h[8:1]/1,,7h[8:1],8,7h[8:1],6,7h[8:1],5,7h[8:1]/5,,4/7h[8:1],4,7h[8:1],3,7-5[8:1],3,
3h[8:1]/7,,3h[8:1],4,3h[8:1],2<6[8:2],3h[8:1],,3,3,4,2,6,5,74,8,
2h[8:1],,2h[8:1],1,2h[8:1],3,2h[8:1],4,2h[8:1]/4,,5/2h[8:1],5,2h[8:1],6,2-4[8:1],6,
6h[8:1]/2,,6h[8:1],5,6h[8:1],7>3[8:2],6h[8:1],,6,6,5,7,3-8[8:1]/7-4[8:1],,3b/7b,,
1>4[8:1]/5,,6,6,57,5-1[8:1],,8h[4:1],,2-6[8:1],13,,,7,57,,
8<5[8:1]/4,,3,3,42,4-8[8:1],,1h[4:1],,7-3[8:1],86,,,2,42,,
6V47[8:2]/3,,1,1-5[8:1],,8-6[8:1],,2-4[8:1],,5h[8:2],,3,2V48[8:2]/4,,6,6,
7h[4:1],,1,8,17,{16}2,4,3,,{8}4b/5b,,2b/7b,2b/7b,,1>4[8:1]/8<5[8:1],,,,
3q4[32:9],,,8,8>3[8:1]*<5[8:1],,,,4q5[32:9],,,8,8>3[8:1]*<5[8:1],,,,
6p5[32:9],,,1,1<6[8:1]*>4[8:1],,,,5p4[32:9],,,1,1<6[8:1]*>4[8:1],,,,
3q5[32:9],,,8,8>3[8:1]*<5[8:1],,,,6p4[32:9],,,1,1<6[8:1]*>4[8:1],,,,
3-5[8:1],,7-4[8:1],,2-5[8:1]*-6[8:1],,,,7-3[8:1],,8-4[8:1],,1-5[8:1],,2-6[8:1],,
8,8,1/7h[8:1],2,17,6h[8:1],4,3h[4:1]/7,,1-5[8:1],8,1/7h[4:1],,4,2b/6b,,
7h[8:1]/8,3,1/2h[8:1],6,45,2-5[8:1]/7-4[8:1],,2b/7b,,1b/8b<4[32:7],1b/8b,,3,3pp4[8:2]*V14[8:2],,3b,
,,2/6-3[8:1],,1,1<4[16:3],,1b/2h[8:3],,,3-8[8:1],,5-2[8:1],,7-4[8:1],,
1-4[8:1]/7,8,1/7-4[8:1],8,17,1w5[8:1],,1b,,37,37,,4-1[8:1]/5-8[8:1],,4b/5b,,
3V52[4:1]/6,,7,6q3[32:7],,3>6[32:7],,5h[8:2],,,4-8[8:1]/5,,1>4[8:1]*<6[8:1]/4,,1,,
3b/7b-4[8:1],,2-6[8:1],2,5-1[8:1],5,3,3bz7[4:1],,6,6,5,{16}15,,2,4,3,5,4,6,
{8}5qq3[8:1]*pp7[8:1],,5b,,48,4/8>5[8:2],,7h[8:3]/8b,,,6-1[8:1],,4-7[8:1],,2-5[8:1],,
1b/2b,,78,1-5[8:1]/6-4[8:1],,6/1>4[8:1]*<6[8:1],,1b,,37,37,,4b/8bw4[8:1],,8b,,
1-6[8:1]/6,,4-8[8:1],4,1-6[8:1],1,4,4b<2[32:7],,3,3-6[8:1],,1w5[8:1]/3,,1,,
8-3[8:1]/3,,5-1[8:1],5,8-3[8:1],8,5,5b>7[32:7],,6,6,,{16}2h[8:1]/4h[8:1],,,7h[8:1]/5h[8:1],,,45,,
{8}26,4-1[8:1]*-7[8:1],5,4b,,8,28,,73,5-8[8:1]*-2[8:1],4,5b<3[32:7],,4,4,,
5b/7h[8:1],1,2h[8:1]/4b,8,5b/6h[8:1],1,{8}43,6b/2b-6[8:1],,2b/8bpp3[8:3]*qq5[8:3],,8b,,,,,
26,2,35,5,64,3/7-3[8:1],,7b/1h[4:1],,4-1[8:1]*-7[8:1],,4,,{16}3,5,1,6,4,8,
7b/3b,,6,5,6,,2bV48[16:15]/8bqq7[16:15],,
