&title=ラブノベルス
&artist=BiBi
&first=0.53
&des=Ragna
&wholebpm=135
&demo_seek=53.65
&demo_len=13.1
&des_5=Ragna
&lv_5=13
&inote_5=(135){8}
,,,,,,,,
,,,,,8-4[8:1],1,,
3h[2:1],,4,5,6h[8:3],,5,5p4[32:13],
,,,,,,36,,
2h[2:1],,4,5,7h[8:3],,6,6p3[32:13],
,,,,,,2b/7b,,
4h[4:1]/3,,2,7,5h[4:1]/6,,7,2,
34,7,65,1,34,8,65,1,
4h[4:1]/2,,1,8,5h[4:1]/7,,8,1,
24,8,75,2,34,35,36,37,
1b/8b,27,36,45,3-5[8:1]/6,,3/7-4[8:1],,
7/1-5[8:1],,18,,65,64,63,62,
1b/8b,27,36,45,7b/8b,61,52,43,
1b/2b,38,47,56,4b/5b,36,27,18,
2bpp8[16:9]/7b,,7,,7,,7,,
5qq8[16:9]/1,,1,,1,,1,,
1/2^5[8:1],1/2h[8:1],,,7^4[8:1]/8,7h[8:1]/8,,,
1/2q7[16:3],1/2h[8:1],,,,18,27,,
5bqq1[16:9]/6b,,6,,6,,6,,
8qq5[16:9]/2,,2,,2,,2,,
3/4-1[8:1],3/4h[8:1],,,6/5-8[8:1],6/5h[8:1],,,
3/4V63[16:5],3/4h[8:1],,,,,4b/5b,3b/6b,
2h[2:1]/7b,,3,,7h[2:1],,6,,
8-3[8:1],4>5[16:7],8,4,,,,,
6h[2:1]/3b,,7,,3h[2:1],,2,,
4-7[8:1],8<1[16:7],4,8,,,7,6,
1b^4[8:1]/5b^8[8:1],,1p4[16:3]/5p8[16:3],,,,,1b^4[8:1]/5b^8[8:1],
,1qq5[8:3]/5qq1[8:3],,,,,,,
2b-4[8:1]/6,,6b-8[8:1]/2,,2b-5[8:1]/6,,6b-1[8:1]/2,,
2b-6[8:1]/6,,6bV85[4:1]/2V41[4:1],,6b/2b,,,26,
3b-8[8:1]/7b-4[8:1],,37,,15,2-5[8:1]/6-1[8:1],,2b/6b,
,84,7-2[8:1]/3-6[8:1],6-3[8:1]/2-7[8:1],73,,,1b/8h[8:5],
,5,2,7,4h[4:1],,5,6h[4:1]/3b,
,8-2[8:1],7-5[8:1],8-4[8:1],7-3[8:1],8,7,,
2b-5[8:1]/6b-1[8:1],,26,,84,7-4[8:1]/3-8[8:1],,3b/7b,
,15,6-3[8:1]/2-7[8:1],7-2[8:1]/3-6[8:1],62,,,8b/1h[4:1],
,5,24,18,75,34,18,5b/6b,
,,8b-4[8:1]/1b-5[8:1],,8b/1b,,36,,
2b-5[8:1]/1b-6[8:1],,21,,36,8-3[8:1]/7-4[8:1],,8b/7b,
,36,1-4[8:1]/8-5[8:1],4-1[8:1]/5-8[8:1],18,,,8b/1h[8:5],
,4,7,2,5h[4:1],,4,3h[4:1]/6b,
,1-7[8:1],2-4[8:1],1-5[8:1],2-6[8:1],1-7[8:1],2-4[8:1],1-5[8:1],
2-6[8:1],1-7[8:1],2V48[4:1],1,2,,,5h[4:1]/1b,
,8-4[8:1],7V51[4:1],8,7,,,4h[4:1]/8b,
,5,24,18,75,34,12,7b/8b,
,,4b/5b,,1b/8b,27,3b/6b,,
2^4[8:1]/4,,25,6,7^5[8:1]/5,,74,3,
24,6,75,3,14,6,85,2,
1^4[8:1]/4,,15,6,8^5[8:1]/5,,84,3,
14,6,85,3,24,18,2b/7b,,{128},{8}
7-4[8:1]/4,,78,1,2-5[8:1]/5,,21,8,
74,3,25,6,84,2,15,7,
8-4[8:1]/4,,83,2,1-5[8:1]/5,,16,7,
84,2,15,6,74,25,1b/8b,,
E
