&title=火種
&artist=キタニタツヤ
&first=0.13
&des=tikafi
&des_5=tikafi
&lv_5=13.0
&inote_5=(126){4},4h[8:1],4h[8:1],4h[8:1],
4h[8:1],3/5h[8:1],5h[8:1]/E4,5h[8:1]/Ch[4:1],
{16},,,,6,4,,4,{8}5,3,1/2,{16}3,5,
{8}4,6,{16}3,5,,5,{8}4,6,7/8,{16}6,4,
{8}5,3,{16}2-5[8:1],1,,1,{8}2,7,5/6,{16}3,4,
{8}2,1,{16}7-4[8:1],8,,8,{8}7,2,3/4,{16}6,5,
{12}7x,8x,1x,{48}2x,,,2xh[16:3],,,,,,,,,{16}4,4h[16:3],,,{4}3-5[8:1],
{16},,,,7,7h[16:3],,,5,5h[16:3],,,{4}6-4[8:1],
{2}1pp8[4:1],5pp4[4:1],
{4}2,{16}3,3h[16:3],,,5,5h[16:3],,,7>3[8:1],7,,,,,,,6,
6h[16:3],,,5,5h[16:3],,,{4}4-7[8:1],
2h,{16}3,3h[16:3],,,4,4h[16:3],,,{4}5>2[8:1],
{8}7qq8[4:1],7,,,3qq4[4:1],3,,,8,
8,{16}6,6h[16:3],,,4,4h[16:3],,,{4}1<7-5>3[4:1],
Cfh[4:1],B2/E3/B3,{16}3,5,,5,{8}4-8[8:1],3,
{4}2h[4:1],1,{16}6,4,,4,{8}5-1[8:1],6,
{4}7h[4:1],{8}8,{16}5,5h[8:1],,3,,2/4,,1/2,,3h[8:1],
,4h[8:1],,5qq1[16:5],,7,{8}7h[8:3],{32},,,,,,,,,,,,,,,,E2,
E3,E4,E5,E6,E7,E8,E1,{4}E2,{16}7,5,,5,{8}6-3[8:1],2,
{4}1h[4:1],5<8[8:1],2>5[8:1],7>2[8:1],
4,{8}3,{16}6,5,{8}6,{16}3,5,{8}4,{16}7,5,
{8}6,{16}1,1,4,4h[8:1],,2,,3/5,,4/6,,7/5,,7/8,
,1,{8}1,{4}5b-8[4:3],,2,
,4-1[4:3],,6,
,8<5[4:3],,E5,
,Ch[2:1],,5,
,6/4,3/5,7/4,
{8}5/2,2,3/7,6,{16}5/1,1,,,{4}3/7,
{8}6/2,3/5,7/1,{16}2,4,{8}3,{16}7,5,{8}6,{16}1,4,
{8}3,{16}8,5,{4}6<3[4:1],,4w8[8:1],
B4f,{8}6/2-6[8:1],1/7,2/6,8,3/7-3[8:1],1/8,
7/3,{16}2,2,{8}4-8[8:1],1>4[8:1],4,1,{4}7-5[8:1]*-4[8:1],
{8},,2h[8:1],{16}4,3,{8}5-1[8:1],6,{4}5/7<3[8:1],
{8}7/8,1,2,{24}2,,4,{8}3,{24}7,,5,{8}6b,8b/7,
2b/1,5b/4,3/7-3[8:1],2/8,7/3,1,6/2-6[8:1],1/8,
2/6,{16}7,7,{8}5-1[8:1],8<5[8:1],5,8,{4}2-4[8:1]*-5[8:1],
{8},,7h[8:1],{16}5,6,{8}4-8[8:1],3,{4}4/2>6[8:1],
{8}2/1,8,7,{24}7,,5,{8}6,{24}1,,4,{8}3>5[4:1],1/2,
,,{4}Cf,{16}6,6h[8:1],,5,,6/4,,7/8,
{8}7/8p4[8:1],1x/2x,{16},,,,3,3h[8:1],,4,,3/5,,2/1,
{8}2/1q5[8:1],7x/8x,,,6-3[8:1],5,2-7[8:1],1,
{4}5<1[4:1],1>5[4:1],5<1[4:1],1w5[8:1],
Cf,E7/B6/B5/B4/E4,{16}3,3h[8:1],,4,,5/2,,7/8,
{8}7/8p4[8:1],2x/1x,{4}3x,{16}6,6h[8:1],,5,,7/4,,2/1,
{8}2/1q5[8:1],7x/8x,{4}6x<1[8:1],3<6[8:1],8>3[8:1],
5,{8}6/4,7/8,1/2,3/5,{4}2h[4:1]/6h[8:1],
E
