&title=Connected Sky
&artist=KARUT
&first=0.11
&des=MikanStar
&lv_5=13+
&des_5=MikanStar
&inote_5=
(133){8}3,4<7[8:1],,4/3h[8:1],,,,3,
,,{4}6,3,6,
{8}6,5>2[8:1],,5/6h[8:1],,,,3,
,,{4}6,3,3,
{8}3/4,4<7[8:1]/5>2[8:1],,4/5-8[8:1],,5,,4h[8:7],
,,{4}E6/B5,B8/E8,E6/B5,
{8}8/7,1<6[8:1]/8>3[8:1],,8/1-4[8:1],,1,,8,
7,6,5,{24}1x,2x,3x,4x,5x,6x,7x,8x,1x,2x,3x,4x,5x,6x,7x,
{16}8b-3[16:1],,,7,{8}8,8h[4:1],,1xh[4:1],7x,6x,
{16}1-5[16:1],,,8,{8}1,1xh[8:3],{16},,,,2,3,{8}4,
{16}1b-5[16:1],,,2,{8}1,1h[4:1],,8xh[4:1],2x,3x,
4/8,7/3,{16}6/2,6/2,,3/7b,,,,,7/3,2/6,{8}5/1,
{16}4b-8[16:1],,,3,{8}4,4h[4:1],,5h[8:1],B2,4h[8:1],
{16}B7,,,5/4,,,{8}E7/E3,{16},,,,1,2,3,4,
5b-1[16:1],,,6,{8}5,5h[4:1],,B3,4h[8:1],B6,
5h[8:1],E5,{16}C,C,,Cf/E7/B6/B2/E3,,,,,4,4,5,5,
{8}3b,3b,{16}6,6,{48},,,6x,5,4,{4}3-8[16:1],4,
{8}6b,6b,{16}3,3,{48},,,3x,4,5,{4}6-1[16:1],5,
{8}2b,7b,{16}1,1,{48},,,8x,1,2,{4}3-7[16:1],2h[4:1],
{8}8b,1b,{16}8,8,{48},,,1x,8,7,{4}6-2[16:1],7h[4:1],
{8}3bh[8:1],{16}6,4-1[16:1],5,5h[8:1],,4,,,,,{4}Ch[8:1],
{8}6bh[8:1],{16}3,5-8[16:1],4,4h[8:1],,5,,,,,{4}C,
{8}2b/8b,{16}2,1-4[16:3],2,8,,1b,,,,,{4}1h[8:1],
{8}1b/7b,{16}7,8-5[16:3],7,1,,8b,,,,,{4}Cf/E7/B7/B3/E3,
{8}6-2[8:1],3-7[8:1],6,3<6[8:1]*>8[8:1],,3b,{48}E7/E8,B6/B8,B5/B1,E5/E2,,,,,,,,,{8}3-7[8:1],
6-2[8:1],3,6>3[8:1]*<1[8:1],,6b,{32}E2/E3,B3/B1,B4/B8,E5/E8,,,,,{8}2-7[8:1],
7-2[8:1],2-5[8:1],5-8[8:1]*-2[8:1],,A5,{4}A8/A2,
{8}7-2[8:1],2-7[8:1],7-4[8:1],4-1[8:1]*-7[8:1],,A4,{4}A7/A1,
{8}1-4[8:1],4-1[8:1],1-6[8:1],6-3[8:1],,A6,{4}A3,
{8}8-5[8:1],5-8[8:1],8-3[8:1],3-6[8:1],,A3,{4}A6,
{8}3-6[8:1],7-2[8:1],3-8[8:1],7-4[8:1],3,7,,,{4}5h[16:1]/4h[16:1],
6xh[16:1]/3xh[16:1],{16}5,4,E6,E4,{4}E5,
{48}8bxv3[16:1],7,6,5,,,,,,{16}E7,{8}8,8h[4:1],,1,1v6[16:1],{48}2x,3x,4x,5,,,{16}1,
,,1h[16:3],,,{8}8,{16},,,,1,8,{8}7,
{48}1bx-5[16:1],2,3,4,,,,,,{16}E3,{8}1,1h[4:1],,8,8-4[16:1],{48}8x,7x,6x,5,,,{8}8,
8h[8:1],{16}3,3,,3h[8:1],,,,,8,7,{8}6,
{48}1bx>6[8:1],2,3,4,,,,,,{16}8,{8}1,1h[4:1],,5h[8:1],8h[8:1],4h[8:1],
{48}1x<4[8:1],8x,7x,6,,,,,,{16}2,{8}1,1h[8:3],{16},,,,2x,3x,{8}4x,
{48}1bx<4[8:1],8,7,6,,,,,,{16}8,{8}1,1h[4:1],,2h[8:1],8h[8:1],3h[8:1],
7h[8:1],4h[8:1],{16}6,6h[16:7],,5h[16:5],,,,,{4}B5f/B6f,
{16}5b>2[16:1],,,6,5,6,{8}6h[4:1],,B3,3h[8:1],B4,
{16}4<7[16:1],,,3,4,3,{8}3h[8:3],{16},,,,4,3,{8}4,
{16}3b,4,,4,{8}5,{16}5-1[2:1],6,,,{8}5,6,4,
7,3,{16}8,8h[8:1],,Cf,,,,,1,2,{8}3,
{16}4b/5,,,5/3,,,{8}6/4,{16},,5,3,6,2,7,1,
8x,8,7,7,6,6,5,5,4,3,2,1,8,7,6,5,
4b/3,,,5/3,,,{8}6/4,{16}6,4,5,3,6,4,5,3,
{8}6,6h[8:1],{16}4,4h[8:1],,5h[16:5],,,,,{4}B3/B4,
{16}4,5,4,B6,,5h[8:1],,,,4,{8}5,{16}4-2[8:1],5,,,{4}4b/5-1[8:1],
5b/6-8[8:1],6-4[8:1],6b,
{16}5,4,5,B3,,4h[8:1],,,,5,{8}4,{16}5-7[8:1],4,,,{4}5b/4-8[8:1],
4b/3-1[8:1],3-5[8:1],3b,
{16}4,,,5-8[8:1],{8}4,{16}4-1[8:1],5,,4x,{8}4x,{4}6h[8:1],
{16}6/3,,,6-4[8:1],{8}3,{16}3-1[8:1],6,,3x,{8}3x,{4}7h[8:1],
{16}7/2,,,2-8[8:1],{8}7,{16}7-5[8:1],2,,7x,{8}7x,{4}1h[8:1],
{16}1/8,,,1-4[8:1],{8}8,{16}8-5[8:1],1,,8x,{8}8x,B1/E2,B4/E4,
{4}3-6[16:1],3/7-2[16:1],7,{8}4-2[8:1],5-7[8:1],
4-8[8:1],5-1[8:1],4,5,{4}4,5b,
6-3[16:1],6/2-7[16:1],2,{8}5-7[8:1],4-2[8:1],
5-1[8:1],4-8[8:1],5,4,{4}5,4b,
3-6[8:1],3/E8/B8,7-2[8:1],{8}7/B4/E4,B4/E4,
,4-1[8:1],,4/8,{4}8-5[8:1],8,
6-3[8:1],6/E2/B1,2-7[8:1],{8}2/B5/E6,B5/E6,
,5-8[8:1],,5/1,{4}1,{16}3b/E1,B8,B7,B6,
{1}E6,
E
