&title=Swift Swing[ST]
&artist=Laur
&first=0
&des=Soyorin
&lv_5=14+
&des_5=Soyorin
&inote_5=
(150){4},{8},,,,,,8,
{16}6,5,,1,,3,{8}4,7,{16}5-1[8:1],4,,,{4}5<1[2:3]*pp2[2:3],
5b,{1},{4},,{16}4/7,
,,6,{8}5,{16}4,5,,6,{8}5,{32}4,,,6h[32:1],,,,,{16}5/2,
,,3,{8}4,{16}5,4,,3,{8}4,5/3,2/4,
{16}6h[16:1]/1h[16:1],,,7,{8}8,{16}1,8,,7,{8}8,{32}1,,,7h[32:1],,,,,{8}8-3[16:1],
{24}6,,6,{8}8,{24}7,,7,,,1,8-5[16:1],,,{12}7,{24}2,8,,,{8}6/3,
{24}3,,5,{8}3,3/6,{12}3,{24}5,3,,,{12}3,{24}5,3,,,{8}3/6,
{24}6,,4,{8}6,6/3,{12}6,{24}4,6,,,{8}6/3,6/3,
5/2,5/2,7/4,7/4,{12}8-4[16:1],{24}3,7,,,8/5,4,3,2,1,8,
{1}4b/7bs3[2:1],
{12}1,{24}6,5,,7,{12}8,{24}6,5,,7-4[12:1],{12}8,{24}6,5-1[12:1],,7,,,,{8}5,
{24},,2,1,,3,{12}4,{24}2,1,,3,{8}4b,2b/6b,{12}8b/4b,{24}1,8,,7/2,
,,3,4,,2,{12}1,{24}3,4,,2-5[12:1],{12}1,{24}3,4-8[12:1],,2,,,,{8}4,
{24}1,2,3,7,6,5,2,3,4,8,7,6,{8}5/1,7/3,{4}5h[4:1]/1h[4:1],
{24},,7,8,,6,{12}5,{24}7,8,,6-1[12:1],{12}5,{24}7,8-4[12:1],,6,,,,{8}8,
{24},,3,4,,2,{12}1,{24}3,4,,2,{8}1b,3b/7b,{12}5b/1b,{24}4,5,,6/3,
,,2,1,,3,{12}4,{24}2,1,,3-8[12:1],{12}4,{24}2,1-5[12:1],,3,,,,{8}1,
4b,6b/2b,{24}7b/3b,7b/3b,,,{12}5bz1[24:5]/1bz5[24:5],{4},,{32}2,
3,{16}4h[16:5],,,,,{8}5,{12}6,{24}5,3,,4,3,2,1,8,7,6,
1,2,3,8,7,6,2,3,4,7,6,5,1,2,3,4,5,6,7/2,3,4,5,6,7,
{12}8/3,{24}3,1,,1,{12}2,3/8,{24},6,{12}5,{24}4,5,,6,{12}5,{24}4,5,,6,
{6}5h[6:1],{24}8,7,{12}6,3,{24},5,{12}4,{24}5,4,,,{8}6/3,{24}2,,3,
{8}1,{16}4,4,,,{8}6,{24}3,2,1,8,,,{8}6/4,5/3,
{16}7/2,,,2,,,{8}2,{24}8/2,7,6,5,4,3,2/7,6,5,4,3,2,
{12}1/7,3,4,2,6,5,7,1,3,2,8,6,
7b/5b,7b/4b,{6}3b/7b,{12}1b/6b,1b/5b,{8}4b/1b,6h[8:1]/2h[8:1],{24},,,,,,{12}1-4[8:1],
6h[24:1],{24},5h[24:1],,,,,,,{12}8-5[8:1],3h[24:1],{24},4h[24:1],,,,,,,{12}1-4[8:1],
6h[24:1],{24},5h[24:1],,,,,,,{8}8-5[8:1]*-3[8:1],6/2,{4}8,
{12}1-5[8:1],6h[24:1],{24},4h[24:1],,,,,,,{12}8-4[8:1],3h[24:1],{24},5h[24:1],,,,,,,{4}1>4[8:1]*<6[8:1],
1,{8}5w1[8:1],7/3,{4}5,
{8}4/6h[8:1],2,5/3h[8:1],7,4/6h[8:1],1,5/3h[8:1],8,
1/6,8/3,1/6,3/8,2/5,7/4,5/2,4/7,
{12}2,{24}7,3,,5,{12}2,{24}8,3,,6,3,4,5,6,7,8,{48}1b,2,3,4,5,6,7,8,1,2,3,4,
{6}5b,4b/2b,6b/3b,5b/7b-3[16:1],{3}1b/8b,
{8}4b/6b-8[8:1],8-5[8:1],6,2-4[8:1],4-8[8:1]*-7[8:1],2,,,6-1[8:1],
5-3[8:1],6,5,2-5[8:1]*-4[8:1],1,{4}2w6[8:1],
2,{8}3-1[8:1],1-4[8:1],3,7-5[8:1],5pp8[16:15],7,
{2}3,{8}5,5,{16}4,3,2,1,
{48},,,,,,,,,,,,8b/1b,2b/7b,3b/6b,4b/5b,,,,,,,,,{8}4/7-5[8:1],5-8[8:1],7,3-1[8:1],
1-5[8:1]*-6[8:1],3,,,4-1[8:1],4,7-3[8:1]*-4[8:1],8,
{4}7,6/2,{8}7,{16}1,8,,6,{8}5,
{6}7/4,3/6,4/2,8/1-5[12:1],{3}6/2,
{48}8b/1b,7/2,6/3,4/5pp1[16:27],{4},{16},,{24},{8}2h[16:1],2h[16:1],3h[16:1],3h[16:1],
4h[16:1],4h[16:1],3h[16:1],3h[16:1],4-1[8:1],3,{4}4,
{24}2-6[8:1],3,4,5,,,{4}2,{24}7/1h[8:1],6,5,4,,,2/8h[8:1],3,4,5,,,7/1h[8:1],
6,5,4,,,3,4,3,4,,,{8}3-7[8:1],3,5,5,
{24}6-2[8:1],5,4,3,2,1,{4}6/8-4[8:1]*-5[8:1],8b,{8}2,{48}1,2,3,4,5,6,
{8}7>5[8:1],4,{4}7,{8}8-4[8:1],4-8[8:1],{4}8,
2h[16:13],,,7,
{48}1bpp4[2:1]/8bqq5[2:1],2/7,3/6,4/5,{4},,,{16},,{24},{4}6h[4:1],
5,3h[4:1],4,
7h[4:1],6,2h[4:1],3,
3h[8:1]/4h[8:1],6h[8:1]/5h[8:1],8h[8:1]/7h[8:1],2h[8:1]/1h[8:1],
{8}8h[8:1],3h[8:1],7h[8:1],4h[8:1],{2}6<1[8:1],
{4}2b-4[8:1],1,8-2[8:1],7,
6-8[8:1],5,4-6[8:1],3,
{8}2-4[8:1],2-8[8:1],,,{4}5w1[8:1],5,
6h[4:1],{24}7,6,7,6,7,6,7,6,7,6,7,6,{48}7,8,1,2,3,4,{8}5,
7b/3b-8[8:1],2,3/7-5[8:1],6,{16}7/4-1[8:1],,,4h[16:3],,,,,5-8[8:1],
,,5h[16:3],,,,,{8}1,2-5[8:1],{16}3,4,{8}2,
6-8[8:1],7,6/4-1[8:1],3,{16}4,,,7/8,,,{8}2/3,
1-5[8:1],6-8[8:1],1,6,{2}4w8[12:1],
{8}6/1,6/1,{16}6/1,2,{8}3/6,3/6-8[12:1],6/4,{4}6/4,
{8}2/5,2/5,{16}2/5,6,{8}7/2,7/2>4[12:1],2/8,{4}2/8,
{24}6,5,,8,1,,4,3,,7,2,,{2}5/4w8[12:1],
{12}2b/4b,2b/5b,{6}6b/2b,{12}8b/3b,8b/4b,{8}5b/8b,3h[8:1]/7h[8:1],{16},,,,2-5[12:1],
4,{8}3,2/8,7,{16}6,5,{8}7,{16}3,5,{8}4,
{16}6-1[12:1],5,{8}7,2/6,3,{16}4,5,{8}3,{16}7,5,{8}6,
{16}2-5[12:1],1,{8}3,2/7,8,{16}7,5,{8}6,{16}4,5,{8}3,
6/2-5[16:1],1,2/6-8[8:1],7,6/4w8[8:1],3,{4}4,
{8}5/3h[8:1],7,4/6h[8:1],2,5/3h[8:1],8,4/6h[8:1],1,
8/3,1/6,8/3,6/1,7/4,2/5,4/7,5/2,
{12}7,{24}2,6,,4,{12}7,{24}1,6,,3,6,5,4,3,2,1,{48}8b,7,6,5,4,3,2,1,8,7,6,5,
{8}4b,6b/2b,{24}7b/3b,7b/3b,,,{12}5bs1[24:5]/1bs5[24:5],
E
