&title=迷星叫
&artist=MyGO!!!!!
&first=4.98
&des=833099
&lv_5=13
&inote_5=(190)
{8}
7,,8,,8,,8qq5[4:13],,
2xh[8:3],,,3h[8:3],,,4h[8:2],,5h[1:1],,,,,,,,
2h[8:3],,,1h[8:3],,,8h[8:2],,7,,3h[4:3],,5,,5,,5-1[8:1],,
3,,6-8[8:1],,4,,1<6[8:1],,4,,2p5[8:1],,8,,8<5[4:1],,5>2[4:1],,2-8-4[4:1],,5,,
6,,5,,47,47,,,
1<6p5[4:5]/2h[4:7],,,,,,,,,,,,,,,,
1-5-7p4[4:5]/8h[4:7],,,,,,,,,,,,,,,,
1qq5<1[4:5]/2h[4:7],,,,,,,,,,,,,,,,,,,
46,,35,,2b-4[4:1]/4b-6[4:1],,,,,,,
,,58,5,6,5,6,7,7h[8:1],,1-5[8:1],,1-3[8:1]/7,,1-5[8:1]/7,,17,,
4x/1x,4,3,4,3,2,2h[8:1],,7-3[8:1],,8-4[8:1],,1-5[8:1],,1,,
3-7[4:1],,,6,6h[4:1],,5-3-1[4:1],,8,,7,7,,
27,,27,,,34,34,,7-4[8:1],7,3h[8:3],,,
{16}6x,4x,6x,,1,,5,,8,,
{8},3h[8:1],,4,3h[4:1],4,,4,6,,4,7,3,8qq6[8:1]*pp2[8:1],2,8,,
7h[8:1],,8,7h[4:1],8,,8,2/5-1-7[4:1],,2,3,4,,,,,
3h[8:1],,4,3h[4:1],4,,4,
{16}12,,,,5,,3,,,56,,,7x-3[8:1],,,2x-4[8:1],,,6>3[8:1],,,,
{8},,4x>8[4:1],,8<4[4:1],,4>8[4:1],,8<4[4:1],,4>8[4:1],,8<4[8:1],,C,,
,37,26,37,26,2pp1[8:10]/6pp5[8:10],7,3,3,7,3,3,
{16}7,3,7,3,7b,,
{8},,,,,,,3b/5bv7[8:1],,3bx,,,,4b-6[8:1]*-2[8:1],4,4b-8[8:1],,4bx,,,,
2b-6[4:1],8b,8b,,7b>3[4:1],,3,3,,4b/5b,,4b/5b,4b/5b,,,,
8bq4[8:1]/4q8[8:1],,C/8qq6[8:1]/4bqq2[8:1],,4bx/8bx,,,,
2b-8[8:1]*-4[8:1],,2bqq6[8:3],,2,,,,
5h[2:1],,4,,3,3h[2:1],,5,,5,,7p3[8:1],8,,2q6[8:1],1,,,,,
12,3,45,5,5,5,1-3-6[8:1],,8,8h[4:1],,,,,
4qq2[8:1]/7,,4pp6[8:1]/7,,7/4q8[8:1]*p8[8:1],,4,,17,,
2,1-4[8:1],,6,7-4q1[4:1],,,,
2>5[4:1],,5<8[4:1],,8p3[4:1],,3>7[4:1],,7<3[4:1],,3>7[4:1],,
7pp7[4:1],,,,3,3h[4:1],,4-7-5[4:1],,1,,8,8,,
,,,,7h[4:5],,
{32}1-5b[8:1],2,3,,,,,,
{8}1,,
{32}1-5b[8:1],2,3,,,,,,
{8}1,,8,4,,7,3w7[8:3],,,,,,,,,,,,,
,,,,,,,,,,,,,,,,,,,,,,,,,,,,,,,,,,,,,,,,,,,,,,,,,,,,,
58,5,6,5,6,7,7h[8:1],,1-5[8:1],,1-3[8:1]/7,,1-5[8:1]/7,,17,,
4x/1x,4,3,4,3,2,2h[8:1],,7-3[8:1],,8-4[8:1],,1-5[8:1],,1,,
5x/8x,5,6,5,6,7,7h[8:1],,8-6[8:1]*-5[8:1],,3/8v2<1v3[8:3],,38,,
B5,B4,E4,,34,34,,7-4[8:1],7,3bh[8:3],,,5,,{16}75,,6,,1x,1x,3,,{8}
4x/5x,5,6,5,6,7,7h[8:1],,2>6[4:1],,6>2[4:1],7h[4:1],,,7,,
4x/1x,4,3,4,3,2,2h[8:1],,3>7[4:1],,7>3[4:1],6h[4:1],,,6,,
,4,3h[8:3],6-8[8:1],6,6,,5-8[4:1],4-1[4:1],,B6,B3,,
2x/7x,,27,,,34,34,,7w3[4:1],3,3bs7<6z2[8:7],,,,,,,,,
3h[8:1],,,3h[4:1],,,,6,,4,7,3,8qq6[8:1]*pp2[8:1],2,8,,
7h[8:1],,,7h[4:1],,,,2/5-1-7[4:1],,2,3,4,,,,,
3h[8:1],,,3h[4:1],,,,
{16}12,,,,5,,3,,,56,,,7x-3[8:1],,,2x-4[8:1],,,6>3[8:1],,,,
{8},,4x>8[4:1],,8<4[4:1],,4>8[4:1],,8<4[4:1],,4>8[4:1],,8<4[8:1],,C,,
,37,26,37,26,2pp1[8:10]/6pp5[8:10],,,,,,,
,,,,,,,,,,3b/5bv7[8:1],,3bx,,,,4b-6[8:1]*-2[8:1],4,4b-8[8:1],,4bx,,,,
2b-6[4:1],8b,8b,,7b>3[4:1],,3,3,,4b/5b,,4b/5b,4b/5b,,,,
8bq4[8:1]/4q8[8:1],,C/8qq6[8:1]/4bqq2[8:1],,4bx/8bx,,,,
8b-5[8:1]/4-1[8:1],,8-3[8:1]/4b-7[8:1],,4b/8b,,,,
5h[2:1],,4,,3,3h[2:1],,5,,5,,7p3[8:1],8,,2q6[8:1],1,,,,,
73,,4,5,4,5,1-3-6[8:1],8h[8:1],,
{64}B8,C,B4,,,,,,,,,,,,,,
{8}
2h[4:1],,,4qq2[8:1]/7,,4pp6[8:1]/7,,7/4q8[8:1]*p8[8:1],,4,,17,,
2,1-4[8:1],,6,7-4q1[4:1],,,,
2>5[4:1],,5<8[4:1],,8p3[4:1],,3>7[4:1],,7<3[4:1],,3>7[4:1],,
7pp7[4:1],,,,3,3h[4:1],,4-7-5[4:1],,1,,8,8,,,,,,7h[4:5],,
{32}1-5b[8:1],2,3,,,,,,
{8}1,,
{32}1-5b[8:1],2,3,,,,,,
{8}1,,8,4,,7,3w7[8:3],,,,,,,,,,,,,
